img image001 image001 image001 image001 image001 image001 image001 image001 image001 image001 image001 image001 image001 image001 image001

Planets Sun Sun Sun
Статистика раздачи
Автор: Nickolas3434 | Размер: 2.18 ГБ | Добавлен: 23 фев 2014
Раздают: 539    Качают: 148
Скачать торрент
Скачать торрент
Описание торрента

СообщениеДобавлено: 23 фев 2014 

Информация о фильме
Название: Два мира
Оригинальное название: Les Deux mondes
Год выхода: 2007
Жанр: Комедия, фэнтези
Режиссер: Дэниэл Коэн
В ролях: Дэниэл Коэн, Бенуа Пульворде, Наташа Линдинжер, Мишель Дукоссю, Паскаль Элсо, Флоренс Лорье, Арли Джовер, Огустен Легран, Матиас Млекуз, Зофиа Морено

О фильме:
В далеком затерянном параллельном мире жители крохотного племени Бегамени изнывают под гнетом каннибала Зотана. И каждый день они молят небеса о спасителе, который освободил бы их от тирана. А в это время в Париже, в нашем мире, живет типичный неудачник, скромный и никому неизвестный реставратор картин Реми Бассано. На него свалилось сразу 33 несчастья: его мастерскую затопило, он лишился работы и погряз в долгах, плюс ко всему его жена сбежала, бросив слабака.


Страна: Франция
Студия: Film Afrika Worldwide CC
Продолжительность: 01:43:15
Перевод: Профессиональный (полное дублирование)

Файл
Формат: MKV
Кодек: AVC
Качество: BDRip-720p
Видео: 1280x544, 23.976 fps, 2574 Kbps
Звук: AC3, 6 channels Front: L C R, Side: L R, LFE, 48kHz, 448kbps



General
Unique ID : 227777271353701890761577095109677370668 (0xAB5C4E87806C554EA0A2B117EB734D2C)
Complete name : D:КИНО2.Mira.(2007).BDRip-720p.[-=DoMiNo=-].mkv
Format : Matroska
Format version : Version 2
File size : 2.18 GiB
Duration : 1h 43mn
Overall bit rate : 3 023 Kbps
Encoded date : UTC 2014-02-21 22:52:44
Writing application : mkvmerge v6.1.0 ('Old Devil') built on Mar 4 2013 09:10:42
Writing library : libebml v1.3.0 + libmatroska v1.4.0

Video
ID : 1
Format : AVC
Format/Info : Advanced Video Codec
Format profile : High@L4.1
Format settings, CABAC : Yes
Format settings, ReFrames : 12 frames
Codec ID : V_MPEG4/ISO/AVC
Duration : 1h 43mn
Bit rate : 2 574 Kbps
Width : 1 280 pixels
Height : 544 pixels
Display aspect ratio : 2.35:1
Frame rate mode : Constant
Frame rate : 23.976 fps
Color space : YUV
Chroma subsampling : 4:2:0
Bit depth : 8 bits
Scan type : Progressive
Bits/(Pixel*Frame) : 0.154
Stream size : 1.81 GiB (83%)
Writing library : x264 core 130 r2273 b3065e6
Encoding settings : cabac=1 / ref=12 / deblock=1:-1:-1 / analyse=0x3:0x133 / me=umh / subme=11 / psy=1 / psy_rd=1.00:0.10 / mixed_ref=1 / me_range=24 / chroma_me=1 / trellis=2 / 8x8dct=1 / cqm=0 / deadzone=21,11 / fast_pskip=0 / chroma_qp_offset=-6 / threads=6 / lookahead_threads=6 / sliced_threads=0 / slices=4 / nr=0 / decimate=0 / interlaced=0 / bluray_compat=0 / constrained_intra=0 / bframes=6 / b_pyramid=2 / b_adapt=2 / b_bias=0 / direct=3 / weightb=1 / open_gop=1 / weightp=2 / keyint=240 / keyint_min=23 / scenecut=40 / intra_refresh=0 / rc_lookahead=60 / rc=2pass / mbtree=1 / bitrate=2574 / ratetol=1.0 / qcomp=0.60 / qpmin=0 / qpmax=69 / qpstep=4 / cplxblur=20.0 / qblur=0.5 / ip_ratio=1.40 / aq=2:1.50
Default : Yes
Forced : No

Audio
ID : 2
Format : AC-3
Format/Info : Audio Coding 3
Mode extension : CM (complete main)
Format settings, Endianness : Big
Codec ID : A_AC3
Duration : 1h 43mn
Bit rate mode : Constant
Bit rate : 448 Kbps
Channel(s) : 6 channels
Channel positions : Front: L C R, Side: L R, LFE
Sampling rate : 48.0 KHz
Bit depth : 16 bits
Compression mode : Lossy
Stream size : 331 MiB (15%)
Default : Yes
Forced : No



   Похожие торренты   Торрент   Размер 
В этой теме нет новых непрочитанных сообщений. Два мира / Les deux mondes (2007) BDRip от HELLYWOOD

8 | 2

2.18 ГБ

В этой теме нет новых непрочитанных сообщений. Два мира / Les deux mondes (2007) BDRip от HQCLUB

8 | 4

2.19 ГБ

В этой теме нет новых непрочитанных сообщений. Два мира / Les Deux mondes (2007) HDTVRip 720p от BT-CLUB

8 | 2

3.56 ГБ

В этой теме нет новых непрочитанных сообщений. Два мира / Les deux mondes (2007) HDRip от Scarabey | D

134 | 13

1.45 ГБ

В этой теме нет новых непрочитанных сообщений. Два мира / Les deux mondes (2007) HDRip от Scarabey | D

48 | 11

744.22 МБ

В этой теме нет новых непрочитанных сообщений. Артур и война двух миров / Arthur 3: la guerre des deux mondes (2010) BDRip 720p от Leonardo | D

159 | 36

3.65 ГБ

В этой теме нет новых непрочитанных сообщений. Артур и война двух миров / Arthur et la guerre des deux mondes (2010) BDRip 720p от Freeisland

14 | 6

4.37 ГБ




Вы не можете начинать темы
Вы не можете отвечать на сообщения
Вы не можете редактировать свои сообщения
Вы не можете удалять свои сообщения
Вы не можете добавлять вложения

Перейти:  
Для Мосгорсуда, Роскомнадзора и рекламодателей: mosgorsud-torrent[собачка]yandex.ru
 Вход
ppkBB3cker v.2 © 2008-2014 @ PPK
[ Time : 0.052s | 19 Queries | GZIP : Off ]

cron