img image001 image001 image001 image001 image001 image001 image001 image001 image001 image001 image001 image001 image001 image001 image001 image001

Planets Sun Sun Sun
Статистика раздачи
Автор: Nickolas3434 | Размер: 1.45 ГБ | Добавлен: 02 мар 2014
Раздают: 66    Качают: 4
Скачать торрент
Скачать торрент
Описание торрента

СообщениеДобавлено: 02 мар 2014 


АНОНСЫ МОИХ РИПОВ! ЛУЧШИЕ ФИЛЬМЫ И СЕРИАЛЫ ВСЕЙ ПЛАНЕТЫ! Подпишись :)


Капитан Крюк / Hook

Страна: США
Жанр: комедия, приключения, семейный, фэнтези
Год выпуска: 1991
Продолжительность: 02:21:45
Перевод: Профессиональный (дублированный) - Варус Видео
Cубтитры: русский, английский

Режиссер: Стивен Спилберг / Steven Spielberg

В ролях: Дастин Хоффман, Робин Уильямс, Джулия Робертс, Боб Хоскинс, Мэгги Смит, Кэролайн Гудолл, Чарли Корсмо, Эмбер Скотт, Лорел Кронин, Фил Коллинз, Артур Мэлет, Айзиа Робинсон

Описание: Питер Пэн стал взрослым и перестал быть Питером Пэном. Теперь ему сорок лет, у него другое имя, семья и серьезная работа. Не осталось и следа от чудесного ребенка, который когда-то умел летать... Но старые враги не забыли мальчика. Капитан с острым стальным крюком вместо руки снова бросает вызов своему противнику, похитив его детей. Питер отправляется вслед за ним в волшебную страну, но чтобы победить там, где живут русалки, феи и однорукие пираты, ему придется снова научиться летать.



Качество видео: HDRip-AVC [Исходник BDRip 1080p / Тарантиныч]
Формат видео: MKV
Видео кодек: H.264
Аудио кодек: MP3
Видео: 880x336 (2:35:1), 23.976 fps, H264 ~ 1 337 kbps avg, 0.173 bit/pixel
Аудио: 48 kHz, MPEG Layer 3, 2 ch, ~128.00 kbps avg
Субтитры: SoftSub (srt)


Раздача от:


D:Мои рипыНовая папкаKapitan.Kruk.HDRip-AVC.dexter_lex.mkv
General
Unique ID : 190116928340785530321452185120278089587 (0x8F073043051F0AD8803DCC0337888F73)
Complete name : D:Мои рипыНовая папкаKapitan.Kruk.HDRip-AVC.dexter_lex.mkv
Format : Matroska
Format version : Version 4 / Version 2
File size : 1.45 GiB
Duration : 2h 21mn
Overall bit rate : 1 467 Kbps
Movie name : New-Team / dexter lex
Encoded date : UTC 2014-02-24 10:25:26
Writing application : mkvmerge v6.1.0 ('Old Devil') built on Mar 4 2013 09:10:42
Writing library : libebml v1.3.0 + libmatroska v1.4.0
Video #1
ID : 1
Format : AVC
Format/Info : Advanced Video Codec
Format profile : High@L4.1
Format settings, CABAC : Yes
Format settings, ReFrames : 11 frames
Codec ID : V_MPEG4/ISO/AVC
Duration : 2h 21mn
Bit rate : 1 337 Kbps
Width : 880 pixels
Height : 366 pixels
Display aspect ratio : 2.40:1
Frame rate : 23.976 fps
Color space : YUV
Chroma subsampling : 4:2:0
Bit depth : 8 bits
Scan type : Progressive
Bits/(Pixel*Frame) : 0.173
Stream size : 1.30 GiB (89%)
Writing library : x264 core 130 r2273 b3065e6
Encoding settings : cabac=1 / ref=11 / deblock=1:-2:-2 / analyse=0x3:0x113 / me=umh / subme=11 / psy=1 / psy_rd=1.00:0.15 / mixed_ref=1 / me_range=48 / chroma_me=1 / trellis=2 / 8x8dct=1 / cqm=0 / deadzone=21,11 / fast_pskip=0 / chroma_qp_offset=-3 / threads=6 / lookahead_threads=1 / sliced_threads=0 / nr=0 / decimate=1 / interlaced=0 / bluray_compat=0 / constrained_intra=0 / bframes=9 / b_pyramid=2 / b_adapt=2 / b_bias=0 / direct=3 / weightb=1 / open_gop=0 / weightp=2 / keyint=240 / keyint_min=23 / scenecut=40 / intra_refresh=0 / rc_lookahead=60 / rc=2pass / mbtree=1 / bitrate=1337 / ratetol=1.0 / qcomp=0.60 / qpmin=0 / qpmax=69 / qpstep=4 / cplxblur=20.0 / qblur=0.5 / ip_ratio=1.40 / aq=1:1.00
Default : Yes
Forced : No
Audio #2
ID : 2
Format : MPEG Audio
Format version : Version 1
Format profile : Layer 3
Codec ID : A_MPEG/L3
Codec ID/Hint : MP3
Duration : 2h 21mn
Bit rate mode : Constant
Bit rate : 128 Kbps
Channel(s) : 2 channels
Sampling rate : 48.0 KHz
Compression mode : Lossy
Stream size : 130 MiB (9%)
Title : Dub
Writing library : LAME3.99r
Encoding settings : -m s -V 4 -q 2 -lowpass 17 -b 128
Language : Russian
Default : Yes
Forced : No
Text #3
ID : 3
Format : UTF-8
Codec ID : S_TEXT/UTF8
Codec ID/Info : UTF-8 Plain Text
Title : Rus SRT
Language : Russian
Default : No
Forced : No
Text #4
ID : 4
Format : UTF-8
Codec ID : S_TEXT/UTF8
Codec ID/Info : UTF-8 Plain Text
Title : Eng SRT
Language : English
Default : No
Forced : No
Menu
00:00:00.000 : en:00:00:00.000
00:08:05.944 : en:00:08:05.944
00:16:44.378 : en:00:16:44.378
00:23:37.625 : en:00:23:37.625
00:30:14.396 : en:00:30:14.396
00:35:50.357 : en:00:35:50.357
00:48:17.603 : en:00:48:17.603
00:58:14.199 : en:00:58:14.199
01:06:16.973 : en:01:06:16.973
01:11:26.532 : en:01:11:26.532
01:22:03.544 : en:01:22:03.544
01:31:46.000 : en:01:31:46.000
01:40:26.020 : en:01:40:26.020
01:47:53.592 : en:01:47:53.592
01:56:29.858 : en:01:56:29.858
02:08:10.057 : en:02:08:10.057




   Похожие торренты   Торрент   Размер 
В этой теме нет новых непрочитанных сообщений. Капитан Крюк / Hook (1991) HDRip от New-Team

138 | 4

2.19 ГБ

В этой теме нет новых непрочитанных сообщений. Капитан Крюк / Hook (1991) HDRip от Scarabey | P

325 | 15

1.45 ГБ

В этой теме нет новых непрочитанных сообщений. Капитан Крюк / Hook (1991) HDRip от Scarabey | P

34 | 10

2.18 ГБ

В этой теме нет новых непрочитанных сообщений. Капитан Крюк / Hook (1991) HDRip от Scarabey | P

47 | 3

799.07 МБ

В этой теме нет новых непрочитанных сообщений. Капитан Крюк / Hook (1991) Blu-Ray

0 | 2

35.68 ГБ

В этой теме нет новых непрочитанных сообщений. Капитан Крюк / Hook (1991) DVDRip-AVC

8 | 3

1.45 ГБ

В этой теме нет новых непрочитанных сообщений. Капитан Крюк / Hook (1991) BDRip 1080p

2 | 4

16.52 ГБ




Вы не можете начинать темы
Вы не можете отвечать на сообщения
Вы не можете редактировать свои сообщения
Вы не можете удалять свои сообщения
Вы не можете добавлять вложения

Перейти:  
 Вход
ppkBB3cker v.2 © 2008-2014 @ PPK
[ Time : 0.029s | 17 Queries | GZIP : Off ]

cron