img image001 image001 image001 image001 image001 image001 image001 image001 image001 image001 image001 image001 image001 image001 image001

Planets Sun Sun Sun
Статистика раздачи
Автор: Nickolas3434 | Размер: 4.51 ГБ | Добавлен: 08 мар 2014
Раздают: 384    Качают: 130
Скачать торрент
Скачать торрент
Описание торрента

СообщениеДобавлено: 08 мар 2014 

Информация о фильме
Название: Багровая зима
Оригинальное название: Crimson Winter / Crimson Throne
Год выхода: 2013
Жанр: ужасы, боевик, драма
Режиссер: Брайан Ферритер
В ролях: Брайан Ферритер, Ник Милодрагович, Кайли Майкл Портсмут, Райн Пфайффер, Брэндон Дэй, Поли Роджа

О фильме:
Много веков назад в кровавой резне клан вампиров был практически уничтожен людьми. Исторические упоминания о вампирах также исчезли. Но часть этих существ бежали и осели в горной заснеженной местности Новой Америки. В их числе был и принц-вампир, который долго выжыдал время, чтобы отомстить за прошлое. И вот в наши дни студенты аспирантуры вторглись в чужие владения с целью изучения данной местности. Но они никак не могли ожидать, что столкнуться лицом к лицу со смертью...



Выпущено: США
Продолжительность: 01:46:19
Озвучивание: Любительское (одноголосое) [VANO]

Файл
Формат: MKV
Качество: BDRip 720p [RUSTED]
Видео: 4370 kb/s, 1280x544
Аудио: Russian: AC3, 192 kb/s (2 ch) / English: DTS, 1510 kb/s (6 ch)
Дополнительно: Сохранены оригинальные чаптеры как на Blu-Ray
Размер: 4.51 GB
Скачать: Сэмпл

Релиз группы:



Общее
Crimson.Winter.2013.Blu.Ray.720p.CINEMANIA.mkv
Формат : Matroska
Версия формата : Version 4 / Version 2
Размер файла : 4,51 Гбайт
Продолжительность : 1 ч. 46 м.
Общий поток : 6071 Кбит/сек
Название фильма : Release Group CINEMANIA
Дата кодирования : UTC 2014-03-07 20:01:15
Программа кодирования : mkvmerge v6.8.0 ('Theme for Great Cities') 64bit built on Mar 2 2014 21:34:26
Библиотека кодирования : libebml v1.3.0 + libmatroska v1.4.1

Видео
Идентификатор : 1
Формат : AVC
Формат/Информация : Advanced Video Codec
Профиль формата : High@L4.1
Параметр CABAC формата : Да
Параметр ReFrames формата : 5 кадров
Идентификатор кодека : V_MPEG4/ISO/AVC
Продолжительность : 1 ч. 46 м.
Битрейт : 4370 Кбит/сек
Ширина : 1280 пикселей
Высота : 544 пикселя
Соотношение сторон : 2,35:1
Режим частоты кадров : Постоянный
Частота кадров : 23,976 кадра/сек
Цветовое пространство : YUV
Субдискретизация насыщенности : 4:2:0
Битовая глубина : 8 бит
Тип развёртки : Прогрессивная
Бит/(Пиксели*Кадры) : 0.262
Размер потока : 3,16 Гбайт (70%)
Заголовок : Release Group CINEMANIA
Библиотека кодирования : x264 core 140 r2377 1ca7bb9
Настройки программы : cabac=1 / ref=5 / deblock=1:0:0 / analyse=0x3:0x133 / me=umh / subme=7 / psy=1 / psy_rd=1.00:0.00 / mixed_ref=1 / me_range=16 / chroma_me=1 / trellis=1 / 8x8dct=1 / cqm=0 / deadzone=21,11 / fast_pskip=0 / chroma_qp_offset=-2 / threads=9 / lookahead_threads=1 / sliced_threads=0 / nr=0 / decimate=1 / interlaced=0 / bluray_compat=0 / constrained_intra=0 / bframes=3 / b_pyramid=2 / b_adapt=1 / b_bias=0 / direct=1 / weightb=1 / open_gop=0 / weightp=1 / keyint=250 / keyint_min=23 / scenecut=40 / intra_refresh=0 / rc_lookahead=40 / rc=2pass / mbtree=1 / bitrate=4370 / ratetol=1.0 / qcomp=0.60 / qpmin=0 / qpmax=69 / qpstep=4 / cplxblur=20.0 / qblur=0.5 / ip_ratio=1.40 / aq=1:1.00
Default : Да
Forced : Нет

Аудио #1
Идентификатор : 2
Формат : AC-3
Формат/Информация : Audio Coding 3
Расширение режима : CM (complete main)
Параметр Endianness формата : Big
Идентификатор кодека : A_AC3
Продолжительность : 1 ч. 46 м.
Вид битрейта : Постоянный
Битрейт : 192 Кбит/сек
Каналы : 2 канала
Расположение каналов : Front: L R
Частота : 48,0 КГц
Битовая глубина : 16 бит
Метод сжатия : С потерями
Размер потока : 146 Мбайт (3%)
Заголовок : VANO
Язык : Russian
Default : Да
Forced : Да

Аудио #2
Идентификатор : 3
Формат : DTS
Формат/Информация : Digital Theater Systems
Режим : 16
Параметр Endianness формата : Big
Идентификатор кодека : A_DTS
Продолжительность : 1 ч. 46 м.
Вид битрейта : Постоянный
Битрейт : 1509 Кбит/сек
Каналы : 6 каналов
Расположение каналов : Front: L C R, Side: L R, LFE
Частота : 48,0 КГц
Битовая глубина : 16 бит
Метод сжатия : С потерями
Размер потока : 1,12 Гбайт (25%)
Язык : English
Default : Нет
Forced : Нет

Меню
00:00:00.000 : en:00:00:00.000
00:07:59.938 : en:00:07:59.938
00:15:59.959 : en:00:15:59.959
00:23:59.938 : en:00:23:59.938
00:31:59.960 : en:00:31:59.960
00:39:59.981 : en:00:39:59.981
00:47:59.919 : en:00:47:59.919
00:55:59.898 : en:00:55:59.898
01:03:59.919 : en:01:03:59.919
01:11:59.941 : en:01:11:59.941
01:19:59.920 : en:01:19:59.920
01:27:59.858 : en:01:27:59.858



   Похожие торренты   Торрент   Размер 
В этой теме нет новых непрочитанных сообщений. Багровая зима / Crimson Winter / Crimson Throne (2013) BDRip 1080p от CINEMANIA | L1

96 | 29

7.79 ГБ

В этой теме нет новых непрочитанных сообщений. Багровая зима / Crimson Winter (2013) HDRip | L1

1221 | 634

1.46 ГБ

В этой теме нет новых непрочитанных сообщений. The Crimson Jazz Trio - King Crimson Songbook [Vol.1+Vol.2] (2005 - 2009) WV

3 | 11

858.89 МБ

В этой теме нет новых непрочитанных сообщений. King Crimson - The Elements of King Crimson [Tour Box] (2014) FLAC

296 | 111

791.41 МБ

В этой теме нет новых непрочитанных сообщений. Багровый пик / Crimson Peak (2015) BDRip 720p от HDClub | Лицензия

448 | 41

8.41 ГБ

В этой теме нет новых непрочитанных сообщений. Багровый прилив / Crimson Tide (1995) BDRip 720p от FREEISLAND

69 | 6

4.38 ГБ

В этой теме нет новых непрочитанных сообщений. Багровый Пик / Crimson Peak (2015) | BDRip 720p | Дополнительные материалы

1 | 0

2.13 ГБ




Вы не можете начинать темы
Вы не можете отвечать на сообщения
Вы не можете редактировать свои сообщения
Вы не можете удалять свои сообщения
Вы не можете добавлять вложения

Перейти:  
Для Мосгорсуда, Роскомнадзора и рекламодателей: mosgorsud-torrent[собачка]yandex.ru
 Вход
ppkBB3cker v.2 © 2008-2014 @ PPK
[ Time : 0.051s | 17 Queries | GZIP : Off ]

Торрент трекер RUTOR.IN, Не можете зайти на rutor.org? Какой новый адрес рутор? Какое зеркало рутор? Не работает rutor.org и зеркала? Тогда наш торрент специально для вас. Rutor.in неофициальное зеркало rutor. В случае если у Вас заблокирован rutor или вдруг Вы не можете на него зайти, то Вы без труда сможете скачать бесплатно и без рекламы последние новинки кино, игр, сериалов и прочего у нас, на Rutor.in. Не нужно использовать прокси, чтобы зайти на рутор, достаточно воспользоваться нашим ресурсом. Все новые фильмы, игры, сериалы, книги и музыка за 2013 и 2014 годы через торрент бесплатно. Скачивайте фильмы в хорошем качестве, игры для пк, xbox, playstation без регистрации. У нас вы найдете новые Зарубежные сериалы и Русские сериалы 2013, 2014, 2015 годов. Оставайтесь с нами, качайте любимые фильмы, игры, сериалы, книги и музыку.
cron