img image001 image001 image001 image001 image001 image001 image001 image001 image001 image001 image001 image001 image001 image001 image001 image001

Planets Sun Sun Sun
Статистика раздачи
Автор: Nickolas3434 | Размер: 6.67 ГБ | Добавлен: 08 мар 2014
Раздают: 85    Качают: 28
Скачать торрент
Скачать торрент
Описание торрента

СообщениеДобавлено: 08 мар 2014 

Информация о фильме
Название: Рожденный летать / Последний рейс
Оригинальное название: Airborne
Год выхода: 2012
Жанр: ужасы, триллер
Режиссер: Доминик Бёрнс
В ролях: Крэйг Конуэй, Саймон Филлипс, Джемма Аткинсон, Алан Форд, Джулиан Гловер, Марк Хэмилл, Билли Мюррэй, Энтони Стайлз, Питер Баррет, Эндрю Шим

О фильме:
Действие фильма разворачивается на борту пассажирского самолета, в багажном отсеке которого скрывается древнее и страшное зло, которое в самый неподходящий момент вырывается на свободу и устраивает кровавое безумие в небе.



Страна: США
Продолжительность: 01:21:43
Озвучивание: Любительское (одноголосое) [ХихиДок]

Файл
Формат: MKV
Качество: BDRip 1080p [NOSCREENS]
Видео: 9966 kb/s, 1920х824
Аудио: Russian: AC3, 192 kb/s (2 ch) / English: DTS, 1510 kb/s (6 ch)
Размер: 6.67 Gb
Скачать: Сэмпл

Релиз группы:



Общее
Airborne.2012.Blu.Ray.1080p.CINEMANIA.mkv
Формат : Matroska
Версия формата : Version 4 / Version 2
Размер файла : 6,67 Гбайт
Продолжительность : 1 ч. 21 м.
Общий поток : 11,7 Мбит/сек
Название фильма : Release Group CINEMANIA
Дата кодирования : UTC 2014-03-07 23:12:27
Программа кодирования : mkvmerge v6.8.0 ('Theme for Great Cities') 64bit built on Mar 2 2014 21:34:26
Библиотека кодирования : libebml v1.3.0 + libmatroska v1.4.1

Видео
Идентификатор : 1
Формат : AVC
Формат/Информация : Advanced Video Codec
Профиль формата : High@L4.1
Параметр CABAC формата : Да
Параметр ReFrames формата : 5 кадров
Идентификатор кодека : V_MPEG4/ISO/AVC
Продолжительность : 1 ч. 21 м.
Битрейт : 9966 Кбит/сек
Ширина : 1920 пикселей
Высота : 824 пикселя
Соотношение сторон : 2,35:1
Режим частоты кадров : Постоянный
Частота кадров : 23,976 кадра/сек
Цветовое пространство : YUV
Субдискретизация насыщенности : 4:2:0
Битовая глубина : 8 бит
Тип развёртки : Прогрессивная
Бит/(Пиксели*Кадры) : 0.263
Размер потока : 5,56 Гбайт (83%)
Заголовок : Release Group CINEMANIA
Библиотека кодирования : x264 core 125 r2200 999b753
Настройки программы : cabac=1 / ref=5 / deblock=1:0:0 / analyse=0x3:0x113 / me=umh / subme=7 / psy=1 / psy_rd=1.00:0.00 / mixed_ref=1 / me_range=16 / chroma_me=1 / trellis=1 / 8x8dct=1 / cqm=0 / deadzone=21,11 / fast_pskip=0 / chroma_qp_offset=-2 / threads=12 / lookahead_threads=2 / sliced_threads=0 / nr=0 / decimate=1 / interlaced=0 / bluray_compat=0 / constrained_intra=0 / bframes=3 / b_pyramid=2 / b_adapt=1 / b_bias=0 / direct=1 / weightb=1 / open_gop=0 / weightp=2 / keyint=250 / keyint_min=23 / scenecut=40 / intra_refresh=0 / rc_lookahead=40 / rc=2pass / mbtree=1 / bitrate=9966 / ratetol=1.0 / qcomp=0.60 / qpmin=0 / qpmax=69 / qpstep=4 / cplxblur=20.0 / qblur=0.5 / ip_ratio=1.40 / aq=1:1.00
Язык : English
Default : Да
Forced : Нет

Аудио #1
Идентификатор : 2
Формат : AC-3
Формат/Информация : Audio Coding 3
Расширение режима : CM (complete main)
Параметр Endianness формата : Big
Идентификатор кодека : A_AC3
Продолжительность : 1 ч. 21 м.
Вид битрейта : Постоянный
Битрейт : 192 Кбит/сек
Каналы : 2 канала
Расположение каналов : Front: L R
Частота : 44,1 КГц
Битовая глубина : 16 бит
Метод сжатия : С потерями
Размер потока : 112 Мбайт (2%)
Заголовок : ХиХидок
Язык : Russian
Default : Да
Forced : Да

Аудио #2
Идентификатор : 3
Формат : DTS
Формат/Информация : Digital Theater Systems
Режим : 16
Параметр Endianness формата : Big
Идентификатор кодека : A_DTS
Продолжительность : 1 ч. 21 м.
Вид битрейта : Постоянный
Битрейт : 1509 Кбит/сек
Каналы : 6 каналов
Расположение каналов : Front: L C R, Side: L R, LFE
Частота : 48,0 КГц
Битовая глубина : 24 бит
Метод сжатия : С потерями
Размер потока : 884 Мбайт (13%)
Язык : English
Default : Нет
Forced : Нет



   Похожие торренты   Торрент   Размер 
В этой теме нет новых непрочитанных сообщений. Рожденный летать / Последний рейс / Airborne (2012) BDRip 720p от CINEMANIA | L1

319 | 108

3.81 ГБ

В этой теме нет новых непрочитанных сообщений. Рожденный летать / Последний рейс / Airborne (2012) HDRip | L1

146 | 43

1.37 ГБ

В этой теме нет новых непрочитанных сообщений. Рождённый летать. К 100-летию Алексея Маресьева (2016) HDTVRip от GeneralFilm

10 | 0

639.89 МБ

В этой теме нет новых непрочитанных сообщений. Рождённый летать. К 100-летию Алексея Маресьева (2016) HDTV 1080i от GeneralFilm

0 | 0

2.56 ГБ

В этой теме нет новых непрочитанных сообщений. Его последний забег / Sein letztes Rennen (2013) BDRip 1080p от CINEMANIA | L1

45 | 4

10.7 ГБ

В этой теме нет новых непрочитанных сообщений. Полосатый рейс / Полосатый рейс (1961) BDRip 1080p

48 | 40

7.97 ГБ

В этой теме нет новых непрочитанных сообщений. Последний рейс / Last Flight (2014) WEBRip | Чистый звук

2340 | 280

1.37 ГБ




Вы не можете начинать темы
Вы не можете отвечать на сообщения
Вы не можете редактировать свои сообщения
Вы не можете удалять свои сообщения
Вы не можете добавлять вложения

Перейти:  
 Вход
ppkBB3cker v.2 © 2008-2014 @ PPK
[ Time : 0.038s | 19 Queries | GZIP : Off ]

cron