img image001 image001 image001 image001 image001 image001 image001 image001 image001 image001 image001 image001 image001 image001 image001 image001

Planets Sun Sun Sun
Статистика раздачи
Автор: Nickolas3434 | Размер: 4.37 ГБ | Добавлен: 12 мар 2014
Раздают: 35    Качают: 44
Скачать торрент
Скачать торрент
Описание торрента

СообщениеДобавлено: 12 мар 2014 

Страна: США
Жанр: фантастика, триллер, драма, детектив
Год выпуска: 1978
Продолжительность: 01:52:59


Перевод: Профессиональный (многоголосый, закадровый) + Авторский (Михалев, Алексей) + Авторский (Горчаков, Василий) + Оригинальный
Субтитры: английские, английские (SDH).


Режиссер: Майкл Крайтон / Michael Crichton


В ролях: Женевьев Бюжо (Dr. Susan Wheeler), Майкл Дуглас (Dr. Mark Bellows), Элизабет Эшли (Mrs. Emerson), Рип Торн (Dr. George), Ричард Уидмарк (Dr. Harris), Лоис Чайлз (Nancy Greenly), Хари Родс (Dr. Morelind), Гари Бартон (Computer Technician), Фрэнк Доунинг (Kelly), Ричард Дойл (Jim), Алан Хофрект (Dr. Marcus), Лэнс ЛеГолт (Vince)


Описание: Молодая женщина-доктор начинает подозревать, что в ее больнице творится что-то неладное. Относительно здоровые пациенты испытывают «осложнения» во время простых операций и впадают в кому. Затем несчастных коматозников отвозят в исследовательский институт, где они находятся под наблюдением. Доктору Сьюзан Уилер предстоит исследовать палаты, морги и другие мрачные места жутковатого медицинского центра Джефферсона и убедить своего скептически настроенного коллегу - доктора Марка, что ее подозрения - не паранойя.




MPAA: PG - Рекомендуется присутствие родителей


Семпл


Качество: BDRip
Контейнер: MKV

Видео: AVC, 1280x720 (16:9), 4769 kbps, 23,976 fps, 0,216 bpp
Аудио №1: русский / AC3 / 2.0 / 48 kHz / 192 kbps
Аудио №2: русский / AC3 / 2.0 / 48 kHz / 192 kbps
Аудио №3: русский / AC3 / 2.0 / 48 kHz / 192 kbps
Аудио №4: английский / AC3 / 2.0 / 48 kHz / 192 kbps
Навигация по главам: есть


Формат : Matroska
Версия формата : Version 2
Размер файла : 4,37 Гбайт
Продолжительность : 1 ч. 52 м.
Общий поток : 5536 Кбит/сек
Название фильма : = Кома / Coma BDRip 720p by SC Kosmos =
Дата кодирования : UTC 2014-02-19 07:29:42
Программа кодирования : mkvmerge v3.3.0 ('Language') gebaut am Mar 24 2010 14:59:24
Библиотека кодирования : libebml v0.8.0 + libmatroska v0.9.0

Видео
Идентификатор : 1
Формат : AVC
Формат/Информация : Advanced Video Codec
Профиль формата : High@L4.1
Параметр CABAC формата : Да
Параметр ReFrames формата : 9 кадров
Идентификатор кодека : V_MPEG4/ISO/AVC
Продолжительность : 1 ч. 52 м.
Битрейт : 4769 Кбит/сек
Ширина : 1280 пикселей
Высота : 720 пикселей
Соотношение сторон : 16:9
Режим частоты кадров : Постоянный
Частота кадров : 23,976 кадра/сек
Цветовое пространство : YUV
Субдискретизация насыщенности : 4:2:0
Битовая глубина : 8 бит
Тип развёртки : Прогрессивная
Бит/(Пиксели*Кадры) : 0.216
Размер потока : 3,68 Гбайт (84%)
Заголовок : Кома / Coma BDRip 720p by SC Kosmos
Библиотека кодирования : x264 core 140 r2377 1ca7bb9
Настройки программы : cabac=1 / ref=9 / deblock=1:-3:-3 / analyse=0x3:0x113 / me=umh / subme=11 / psy=1 / psy_rd=1.00:0.00 / mixed_ref=1 / me_range=32 / chroma_me=1 / trellis=2 / 8x8dct=1 / cqm=0 / deadzone=21,11 / fast_pskip=0 / chroma_qp_offset=-2 / threads=12 / lookahead_threads=1 / sliced_threads=0 / nr=0 / decimate=1 / interlaced=0 / bluray_compat=0 / constrained_intra=0 / bframes=10 / b_pyramid=2 / b_adapt=1 / b_bias=0 / direct=3 / weightb=1 / open_gop=0 / weightp=2 / keyint=240 / keyint_min=23 / scenecut=40 / intra_refresh=0 / rc=2pass / mbtree=0 / bitrate=4769 / ratetol=1.0 / qcomp=0.60 / qpmin=0 / qpmax=69 / qpstep=4 / cplxblur=20.0 / qblur=0.5 / ip_ratio=1.40 / pb_ratio=1.30 / aq=1:1.00
Язык : English
Default : Нет
Forced : Нет

Аудио #1
Идентификатор : 2
Формат : AC-3
Формат/Информация : Audio Coding 3
Расширение режима : CM (complete main)
Параметр Endianness формата : Big
Идентификатор кодека : A_AC3
Продолжительность : 1 ч. 52 м.
Вид битрейта : Постоянный
Битрейт : 192 Кбит/сек
Каналы : 2 канала
Расположение каналов : Front: L R
Частота : 48,0 КГц
Битовая глубина : 16 бит
Метод сжатия : С потерями
Размер потока : 155 Мбайт (3%)
Заголовок : MVO
Язык : Russian
Default : Да
Forced : Нет

Аудио #2
Идентификатор : 3
Формат : AC-3
Формат/Информация : Audio Coding 3
Расширение режима : CM (complete main)
Параметр Endianness формата : Big
Идентификатор кодека : A_AC3
Продолжительность : 1 ч. 52 м.
Вид битрейта : Постоянный
Битрейт : 192 Кбит/сек
Каналы : 2 канала
Расположение каналов : Front: L R
Частота : 48,0 КГц
Битовая глубина : 16 бит
Метод сжатия : С потерями
Размер потока : 155 Мбайт (3%)
Заголовок : AVO ( А. Михалев )
Язык : Russian
Default : Нет
Forced : Нет

Аудио #3
Идентификатор : 4
Формат : AC-3
Формат/Информация : Audio Coding 3
Расширение режима : CM (complete main)
Параметр Endianness формата : Big
Идентификатор кодека : A_AC3
Продолжительность : 1 ч. 52 м.
Вид битрейта : Постоянный
Битрейт : 192 Кбит/сек
Каналы : 2 канала
Расположение каналов : Front: L R
Частота : 48,0 КГц
Битовая глубина : 16 бит
Метод сжатия : С потерями
Размер потока : 155 Мбайт (3%)
Заголовок : AVO ( В. Горчаков )
Язык : Russian
Default : Нет
Forced : Нет

Аудио #4
Идентификатор : 5
Формат : AC-3
Формат/Информация : Audio Coding 3
Расширение режима : CM (complete main)
Параметр Endianness формата : Big
Идентификатор кодека : A_AC3
Продолжительность : 1 ч. 52 м.
Вид битрейта : Постоянный
Битрейт : 192 Кбит/сек
Каналы : 2 канала
Расположение каналов : Front: L R
Частота : 48,0 КГц
Битовая глубина : 16 бит
Метод сжатия : С потерями
Размер потока : 155 Мбайт (3%)
Язык : English
Default : Нет
Forced : Нет

Текст #1
Идентификатор : 6
Формат : UTF-8
Идентификатор кодека : S_TEXT/UTF8
Идентификатор кодека/Информация : UTF-8 Plain Text
Язык : English
Default : Нет
Forced : Нет

Текст #2
Идентификатор : 7
Формат : UTF-8
Идентификатор кодека : S_TEXT/UTF8
Идентификатор кодека/Информация : UTF-8 Plain Text
Заголовок : SDH
Язык : English
Default : Нет
Forced : Нет

Меню
00:00:00.000 : en:00:00:00.000
00:02:00.412 : en:00:02:00.412
00:07:14.559 : en:00:07:14.559
00:09:23.438 : en:00:09:23.438
00:15:56.539 : en:00:15:56.539
00:21:03.429 : en:00:21:03.429
00:24:28.425 : en:00:24:28.425
00:27:59.177 : en:00:27:59.177
00:31:29.638 : en:00:31:29.638
00:33:13.366 : en:00:33:13.366
00:36:07.749 : en:00:36:07.749
00:39:15.853 : en:00:39:15.853
00:40:58.831 : en:00:40:58.831
00:44:45.725 : en:00:44:45.725
00:49:04.316 : en:00:49:04.316
00:52:08.334 : en:00:52:08.334
00:54:10.622 : en:00:54:10.622
00:56:20.961 : en:00:56:20.961
00:58:10.404 : en:00:58:10.404
00:59:39.034 : en:00:59:39.034
01:01:22.137 : en:01:01:22.137
01:06:54.344 : en:01:06:54.344
01:09:53.147 : en:01:09:53.147
01:13:46.547 : en:01:13:46.547
01:16:40.888 : en:01:16:40.888
01:20:05.134 : en:01:20:05.134
01:25:10.689 : en:01:25:10.689
01:28:51.201 : en:01:28:51.201
01:32:21.244 : en:01:32:21.244
01:34:37.797 : en:01:34:37.797
01:40:38.699 : en:01:40:38.699
01:43:46.679 : en:01:43:46.679
01:49:39.615 : en:01:49:39.615
01:50:36.880 : en:01:50:36.880









   Похожие торренты   Торрент   Размер 
В этой теме нет новых непрочитанных сообщений. Кома / Coma [S01] (2012) HDTVRip | ТВ3

190 | 12

2.74 ГБ

В этой теме нет новых непрочитанных сообщений. Breathe Carolina - Coma [EP] (2017) MP3

11 | 0

42.29 МБ

В этой теме нет новых непрочитанных сообщений. Coma: Mortuary (2014) PC | RePack от R.G. UPG

113 | 10

2.14 ГБ

В этой теме нет новых непрочитанных сообщений. The Coma: Recut (2017) PC | Repack от Other s

23 | 7

162.06 МБ

В этой теме нет новых непрочитанных сообщений. Coma: Mortuary (2014) PC | Лицензия

355 | 92

5.35 ГБ

В этой теме нет новых непрочитанных сообщений. Coma: Mortuary (2014) PC | RePack от R.G. Механики

207 | 17

2.16 ГБ

В этой теме нет новых непрочитанных сообщений. The Coma: Recut (2017) PC | Repack от Covfefe

212 | 14

370.09 МБ




Вы не можете начинать темы
Вы не можете отвечать на сообщения
Вы не можете редактировать свои сообщения
Вы не можете удалять свои сообщения
Вы не можете добавлять вложения

Перейти:  
 Вход
ppkBB3cker v.2 © 2008-2014 @ PPK
[ Time : 0.034s | 19 Queries | GZIP : Off ]

cron