img image001 image001 image001 image001 image001 image001 image001 image001 image001 image001 image001 image001 image001 image001 image001

Planets Sun Sun Sun
Статистика раздачи
Автор: Nickolas3434 | Размер: 2.55 ГБ | Добавлен: 12 мар 2014
Раздают: 417    Качают: 206
Скачать торрент
Скачать торрент
Описание торрента

СообщениеДобавлено: 12 мар 2014 

Информация о фильме
Название: Далласский клуб покупателей
Оригинальное название: Dallas Buyers Club
Год выхода: 2013
Жанр: Драма, биография, история
Режиссер: Жан-Марк Валле
В ролях: Мэттью МакКонахи, Дженнифер Гарнер, Джаред Лето, Стив Зан, Дэнис О’Хэйр, Кевин О. Ранкин, Даллас Робертс, Стеффи Гроут, Джанин Хилл, Гриффин Данн

О фильме:
Реальная история Рона Вудруфа, техасского электрика, у которого в 1986 году обнаружили СПИД. Тогда врачи отвели ему всего полгода, но он не пожелал смириться со смертным приговором и сумел продлить свою жизнь, принимая нетрадиционные лекарства, а затем наладил подпольный и прибыльный бизнес по продаже их другим больным.


Страна: США / Truth Entertainment (II), Voltage Pictures
Продолжительность: 01:56:57
Перевод: Профессиональный многоголосый, авторский

Файл
Качество: BDRip-AVC [ Dallas.Buyers.Club.2013.BluRay.1080p.AVC.DTS-HD.MA5.1-CHDBits]
Контейнер: MKV
Видео: MPEG-4 AVC, 1024x426 (2.40:1), 1773 kbps, 23,976 fps, 0,170 bpp
Аудио №1: русский / AC3 / 5.1 / 48 kHz / 448 kbps / 16 bit |Baibako|
Аудио №2: русский / AC3 / 5.1 / 48 kHz / 448 kbps / 16 bit |C.Визгунов|
Аудио №3: английский / AC3 / 5.1 / 48 kHz / 448 kbps / 16 bit
Субтитры: Русские, английские
Навигация по главам: есть

Семпл

Перевод С.Визгунова выполнен спонсорами ресурса e180. Меценаты: luka69, ARTYq, kabukiman, tide, xerman13, oleg-k, foxlight, markinscor, Iceman, denis_mgn_1987, carnivale, GKillah, MyxAmoP, Maldivess, Rayan, Некрасов, Slimka, Эдуард, ZeDOK, magvai, plastm, anton966, Lee Ray, Guyver, vik19662007, Andrey_Tula, Марлон, masta, Skoped, uchitel538, Loki1982, kiruxa-k. Всем СПАСИБО!

x264 [info]: frame I:1158 Avg QP:15.86 size: 71251
x264 [info]: frame P:34111 Avg QP:18.94 size: 20220
x264 [info]: frame B:132971 Avg QP:20.31 size: 5865

Format : Matroska
Format version : Version 4 / Version 2
File size : 2.55 GiB
Duration : 1h 56mn
Overall bit rate : 3 116 Kbps
Movie name : -=MediaClub - Odessit=-
Encoded date : UTC 2014-03-11 22:59:47
Writing application : mkvmerge v6.8.0 ('Theme for Great Cities') 64bit built on Mar 2 2014 21:34:26
Writing library : libebml v1.3.0 + libmatroska v1.4.1

Video
ID : 1
Format : AVC
Format/Info : Advanced Video Codec
Format profile : High@L4.1
Format settings, CABAC : Yes
Format settings, ReFrames : 10 frames
Codec ID : V_MPEG4/ISO/AVC
Duration : 1h 56mn
Bit rate : 1 773 Kbps
Width : 1 024 pixels
Height : 426 pixels
Display aspect ratio : 2.40:1
Frame rate : 23.976 fps
Color space : YUV
Chroma subsampling : 4:2:0
Bit depth : 8 bits
Scan type : Progressive
Bits/(Pixel*Frame) : 0.170
Stream size : 1.40 GiB (55%)
Writing library : x264 core 130 r2273 b3065e6
Encoding settings : cabac=1 / ref=10 / deblock=1:-2:-2 / analyse=0x3:0x113 / me=umh / subme=11 / psy=1 / psy_rd=1.00:0.20 / mixed_ref=1 / me_range=64 / chroma_me=1 / trellis=2 / 8x8dct=1 / cqm=0 / deadzone=21,11 / fast_pskip=0 / chroma_qp_offset=-3 / threads=6 / lookahead_threads=1 / sliced_threads=0 / nr=0 / decimate=0 / interlaced=0 / bluray_compat=0 / constrained_intra=0 / bframes=13 / b_pyramid=2 / b_adapt=2 / b_bias=0 / direct=3 / weightb=1 / open_gop=0 / weightp=2 / keyint=240 / keyint_min=23 / scenecut=40 / intra_refresh=0 / rc=2pass / mbtree=0 / bitrate=1773 / ratetol=1.0 / qcomp=0.60 / qpmin=0 / qpmax=69 / qpstep=4 / cplxblur=20.0 / qblur=0.5 / ip_ratio=1.40 / pb_ratio=1.30 / aq=1:0.80
Language : English

Audio #1
ID : 2
Format : AC-3
Format/Info : Audio Coding 3
Mode extension : CM (complete main)
Codec ID : A_AC3
Duration : 1h 56mn
Bit rate mode : Constant
Bit rate : 448 Kbps
Channel(s) : 6 channels
Channel positions : Front: L C R, Side: L R, LFE
Sampling rate : 48.0 KHz
Bit depth : 16 bits
Compression mode : Lossy
Stream size : 375 MiB (14%)
Title : Профессиональный многоголосый (Baibako)
Language : Russian

Audio #2
ID : 3
Format : AC-3
Format/Info : Audio Coding 3
Mode extension : CM (complete main)
Codec ID : A_AC3
Duration : 1h 56mn
Bit rate mode : Constant
Bit rate : 448 Kbps
Channel(s) : 6 channels
Channel positions : Front: L C R, Side: L R, LFE
Sampling rate : 48.0 KHz
Bit depth : 16 bits
Compression mode : Lossy
Stream size : 375 MiB (14%)
Title : Одноголосый закадровый, C.Визгунов
Language : Russian

Audio #3
ID : 4
Format : AC-3
Format/Info : Audio Coding 3
Mode extension : CM (complete main)
Codec ID : A_AC3
Duration : 1h 56mn
Bit rate mode : Constant
Bit rate : 448 Kbps
Channel(s) : 6 channels
Channel positions : Front: L C R, Side: L R, LFE
Sampling rate : 48.0 KHz
Bit depth : 16 bits
Compression mode : Lossy
Stream size : 375 MiB (14%)
Language : English

Text #1
ID : 5
Format : UTF-8
Codec ID : S_TEXT/UTF8
Codec ID/Info : UTF-8 Plain Text
Language : Russian

Text #2
ID : 6
Format : UTF-8
Codec ID : S_TEXT/UTF8
Codec ID/Info : UTF-8 Plain Text
Title : Full
Language : English

Text #3
ID : 7
Format : UTF-8
Codec ID : S_TEXT/UTF8
Codec ID/Info : UTF-8 Plain Text
Title : SDH
Language : English

Menu
00:00:00.000 : en:00:00:00.000
00:06:20.672 : en:00:06:20.672
00:11:52.879 : en:00:11:52.879
00:18:41.579 : en:00:18:41.579
00:24:55.703 : en:00:24:55.703
00:29:44.282 : en:00:29:44.282
00:35:15.697 : en:00:35:15.697
00:41:33.282 : en:00:41:33.282
00:46:32.873 : en:00:46:32.873
00:51:49.023 : en:00:51:49.023
00:55:37.834 : en:00:55:37.834
01:01:25.974 : en:01:01:25.974
01:07:16.783 : en:01:07:16.783
01:12:37.645 : en:01:12:37.645
01:19:55.249 : en:01:19:55.249
01:28:25.550 : en:01:28:25.550
01:36:56.644 : en:01:36:56.644
01:43:06.639 : en:01:43:06.639
01:47:59.473 : en:01:47:59.473
01:52:12.851 : en:01:52:12.851



Релиз от: |



   Похожие торренты   Торрент   Размер 
В этой теме нет новых непрочитанных сообщений. Далласский клуб покупателей / Dallas Buyers Club (2013) BDRip-AVC от MediaClub | L1

8 | 2

2.18 ГБ

В этой теме нет новых непрочитанных сообщений. Далласский клуб покупателей / Dallas Buyers Club (2013) BDRip-AVC от MediaClub | Baibako

42 | 2

2.18 ГБ

В этой теме нет новых непрочитанных сообщений. Далласский клуб покупателей / Dallas Buyers Club (2013) BDRip-AVC от MediaClub | D, A | Лицензия

244 | 52

2.49 ГБ

В этой теме нет новых непрочитанных сообщений. Далласский клуб покупателей / Dallas Buyers Club (2013) BDRip-AVC от MediaClub | D, P, A | Чистый звук

956 | 238

2.81 ГБ

В этой теме нет новых непрочитанных сообщений. Далласский клуб покупателей / Dallas Buyers Club (2013) BDRip-AVC от HELLYWOOD | P

205 | 7

2.18 ГБ

В этой теме нет новых непрочитанных сообщений. Далласский клуб покупателей / Dallas Buyers Club (2013) BDRip 720p | P

118 | 6

6.9 ГБ

В этой теме нет новых непрочитанных сообщений. Далласский клуб покупателей / Dallas Buyers Club (2013) BDRip 720p | L1

5 | 2

3.79 ГБ




Вы не можете начинать темы
Вы не можете отвечать на сообщения
Вы не можете редактировать свои сообщения
Вы не можете удалять свои сообщения
Вы не можете добавлять вложения

Перейти:  
Для Мосгорсуда, Роскомнадзора и рекламодателей: mosgorsud-torrent[собачка]yandex.ru
 Вход
ppkBB3cker v.2 © 2008-2014 @ PPK
[ Time : 0.055s | 16 Queries | GZIP : Off ]

Торрент трекер RUTOR.IN, Не можете зайти на rutor.org? Какой новый адрес рутор? Какое зеркало рутор? Не работает rutor.org и зеркала? Тогда наш торрент специально для вас. Rutor.in неофициальное зеркало rutor. В случае если у Вас заблокирован rutor или вдруг Вы не можете на него зайти, то Вы без труда сможете скачать бесплатно и без рекламы последние новинки кино, игр, сериалов и прочего у нас, на Rutor.in. Не нужно использовать прокси, чтобы зайти на рутор, достаточно воспользоваться нашим ресурсом. Все новые фильмы, игры, сериалы, книги и музыка за 2013 и 2014 годы через торрент бесплатно. Скачивайте фильмы в хорошем качестве, игры для пк, xbox, playstation без регистрации. У нас вы найдете новые Зарубежные сериалы и Русские сериалы 2013, 2014, 2015 годов. Оставайтесь с нами, качайте любимые фильмы, игры, сериалы, книги и музыку.
cron