img image001 image001 image001 image001 image001 image001 image001 image001 image001 image001 image001 image001 image001 image001 image001 image001

Planets Sun Sun Sun
Статистика раздачи
Автор: Nickolas3434 | Размер: 3.84 ГБ | Добавлен: 01 апр 2014
Раздают: 142    Качают: 42
Скачать торрент
Скачать торрент
Описание торрента

СообщениеДобавлено: 01 апр 2014 

Информация о фильме
Название: Незримые свидетели
Оригинальное название: Shadow Witness
Год выхода: 2012
Жанр: Детектив
Режиссер: Скотт Зил
В ролях: Кевин Сорбо, Элэйн Хендрикс, Итэн Филлипс, Рэндолл Батинкофф, Дэвид Риис Снелл, Мета Голдинг, Л.Дж. Бенет, Лоренцо Питер Бенет, Дженика Бергер, Никки ДиСанто

О фильме:
Когда детектив обнаруживает, что он впутан во внутреннее расследование, он вынужден обратиться к единственному человеку, которому он может доверять — молодой девушке, у которой есть все ответы на интересующие его вопросы. Проблема лишь в том, что она числится пропавшей без вести, а он — главный подозреваемый.


Страна: США
Студия: Berachah Productions
Продолжительность: 01:19:12
Перевод: Профессиональный двухголосый (НТВ+)

Файл
Кодек: MPEG-4 AVC
Качество: HDTVRip 1080p
Видео: 6500 Кбит/с, 1920x1080, 25.000 кадр/с
Звук: Русский (АС3, 2 ch, 448 Кбит/с)

Семпл


Общее
Полное имя : Nezrimye.svideteli.2012.x264.HDTVRip(1080p).MediaClub.mkv
Формат : Matroska
Версия формата : Version 2
Размер файла : 3,84 Гбайт
Продолжительность : 1 ч. 19 м.
Общий поток : 6944 Кбит/сек
Дата кодирования : UTC 2014-03-31 07:31:57
Программа кодирования : mkvmerge v5.4.0 ('Piper') built on Mar 10 2012 13:34:39
Библиотека кодирования : libebml v1.2.3 + libmatroska v1.3.0

Видео
Идентификатор : 1
Формат : AVC
Формат/Информация : Advanced Video Codec
Профиль формата : High@L4.1
Параметр CABAC формата : Да
Параметр ReFrames формата : 4 кадра
Идентификатор кодека : V_MPEG4/ISO/AVC
Продолжительность : 1 ч. 19 м.
Битрейт : 6500 Кбит/сек
Ширина : 1920 пикселей
Высота : 1080 пикселей
Соотношение сторон : 16:9
Режим частоты кадров : Постоянный
Частота кадров : 25,000 кадров/сек
Цветовое пространство : YUV
Субдискретизация насыщенности : 4:2:0
Битовая глубина : 8 бит
Тип развёртки : Прогрессивная
Бит/(Пиксели*Кадры) : 0.125
Размер потока : 3,52 Гбайт (92%)
Библиотека кодирования : x264 core 125 r2208 d9d2288
Настройки программы : cabac=1 / ref=4 / deblock=1:-2:-2 / analyse=0x3:0x133 / me=umh / subme=10 / psy=1 / psy_rd=1.00:0.15 / mixed_ref=1 / me_range=32 / chroma_me=1 / trellis=2 / 8x8dct=1 / cqm=0 / deadzone=21,11 / fast_pskip=0 / chroma_qp_offset=-3 / threads=6 / lookahead_threads=1 / sliced_threads=0 / nr=0 / decimate=0 / interlaced=0 / bluray_compat=0 / constrained_intra=0 / bframes=8 / b_pyramid=2 / b_adapt=2 / b_bias=0 / direct=3 / weightb=1 / open_gop=0 / weightp=2 / keyint=250 / keyint_min=25 / scenecut=40 / intra_refresh=0 / rc=2pass / mbtree=0 / bitrate=6500 / ratetol=1.0 / qcomp=0.60 / qpmin=0 / qpmax=69 / qpstep=4 / cplxblur=20.0 / qblur=0.5 / ip_ratio=1.40 / pb_ratio=1.30 / aq=1:0.80
Default : Да
Forced : Нет

Аудио
Идентификатор : 2
Формат : AC-3
Формат/Информация : Audio Coding 3
Расширение режима : CM (complete main)
Параметр Endianness формата : Big
Идентификатор кодека : A_AC3
Продолжительность : 1 ч. 19 м.
Вид битрейта : Постоянный
Битрейт : 448 Кбит/сек
Каналы : 2 канала
Расположение каналов : Front: L R
Частота : 48,0 КГц
Битовая глубина : 16 бит
Метод сжатия : С потерями
Размер потока : 254 Мбайт (6%)
Язык : Russian
Default : Да
Forced : Нет


Релиз от:



   Похожие торренты   Торрент   Размер 
В этой теме нет новых непрочитанных сообщений. Незримые свидетели / Shadow Witness (2012) HDTVRip-AVC от MediaClub | P2

155 | 41

1.39 ГБ

В этой теме нет новых непрочитанных сообщений. Незримые свидетели / Shadow Witness (2012) HDTVRip 720p от MediaClub | P2

294 | 200

2.16 ГБ

В этой теме нет новых непрочитанных сообщений. Незримые свидетели / Shadow Witness (2012) SATRip от ClubTorrent | P2

32 | 3

1.2 ГБ

В этой теме нет новых непрочитанных сообщений. Свидетели японской катастрофы / Witness : Disaster in Japan (2011) HDTVRip 1080p MediaClub

13 | 1

3.69 ГБ

В этой теме нет новых непрочитанных сообщений. Свидетели японской катастрофы / Witness: Disaster in Japan (2011) HDTVRip 720p

7 | 2

1.21 ГБ

В этой теме нет новых непрочитанных сообщений. National Geographic : Свидетели японской катастрофы / Witness : Disaster in Japan (2011) SATRip by Alex Smit

4 | 3

651.47 МБ

В этой теме нет новых непрочитанных сообщений. Свидетели [81] (2017) WEBRip 1080p от MediaClub

0 | 0

2 ГБ




Вы не можете начинать темы
Вы не можете отвечать на сообщения
Вы не можете редактировать свои сообщения
Вы не можете удалять свои сообщения
Вы не можете добавлять вложения

Перейти:  
 Вход
ppkBB3cker v.2 © 2008-2014 @ PPK
[ Time : 0.038s | 19 Queries | GZIP : Off ]

cron