img image001 image001 image001 image001 image001 image001 image001 image001 image001 image001 image001 image001 image001 image001 image001

Planets Sun Sun Sun
Статистика раздачи
Автор: Снежана | Размер: 746.02 МБ | Добавлен: 20 июл 2013
Раздают: 1    Качают: 1
Скачать торрент
Скачать торрент
Описание торрента

СообщениеДобавлено: 20 июл 2013 

#77

Информация о фильме
Название: Виски с водкой
Оригинальное название: Whisky mit Wodka
Год выхода: 2009
Жанр: драма, комедия
Режиссер: Андреас Дрезен / Andreas Dresen
В ролях: Хенри Хюбхен /Henry Hübchen/, Коринна Харфух /Corinna Harfouch/, Сильвестр Грот /Sylvester Groth/, Маркус Херинг /Markus Hering/, Питер Кёрф /Peter Kurth/, Карина Плачетка /Karina Plachetka/, Матиас Уолтер /Matthias Walter/

О фильме:
Актёра Отто Кульберга любят женщины и уважают мужчины. Вот только иногда он слишком много выпивает. Однажды он, совершенно пьяный, забывает про съёмки нового костюмированного фильма про 20-е годы. Кажется, на этот раз его дела совсем плохи. На роль Отто срочно подыскивают дублёра, молодого Арно, и все сцены снимают по 2 раза — продюсер Лео не хочет выбрасывать деньги на ветер.

Отто, который привык находиться в центре внимания и не привык держать язык за зубами, оказывается в сложной ситуации. Он должен бороться за роль в фильме, который ставит перед ним и личные проблемы: несколько лет у него что-то было с нынешней партнёршей по фильму Бетиной, которая сейчас замужем за режиссёром фильма. Но вскоре границы между фильмом и реальностью размываются… Ах да — наверное, все знают, что виски с водкой лучше не мешать?

Страна: Германия
Студия: Bayerischer Rundfunk
Продолжительность: 01:39:35
Перевод: Профессиональный (многоголосый) | Лицензия

Файл
Кодек: XviD / MP3
Качество: DVDRip
Видео: XviD, 640x352 (16:9), 25.000 fps, 912 Kbps (0.162 bit/pixel)
Звук: MP3, 48.0 KHz, 2 ch, 128 Kbps, CBR

General
Complete name : /home/video/Whisky.mit.Wodka_[Rutor.org].avi
Format : AVI
Format/Info : Audio Video Interleave
File size : 746 MiB
Duration : 1h 39mn
Overall bit rate : 1 047 Kbps
Writing application : VirtualDubMod 1.5.4.1 (build 2178/release)
Writing library : VirtualDubMod build 2178/release

Video
ID : 0
Format : MPEG-4 Visual
Format profile : Advanced Simple@L5
Format settings, BVOP : Yes
Format settings, QPel : No
Format settings, GMC : No warppoints
Format settings, Matrix : Custom
Codec ID : XVID
Codec ID/Hint : XviD
Duration : 1h 39mn
Bit rate : 912 Kbps
Width : 640 pixels
Height : 352 pixels
Display aspect ratio : 16:9
Frame rate : 25.000 fps
Color space : YUV
Chroma subsampling : 4:2:0
Bit depth : 8 bits
Scan type : Progressive
Compression mode : Lossy
Bits/(Pixel*Frame) : 0.162
Stream size : 650 MiB (87%)
Writing library : XviD 63

Audio
ID : 1
Format : MPEG Audio
Format version : Version 1
Format profile : Layer 3
Mode : Joint stereo
Mode extension : MS Stereo
Codec ID : 55
Codec ID/Hint : MP3
Duration : 1h 39mn
Bit rate mode : Constant
Bit rate : 128 Kbps
Channel(s) : 2 channels
Sampling rate : 48.0 KHz
Compression mode : Lossy
Stream size : 91.2 MiB (12%)
Alignment : Aligned on interleaves
Interleave, duration : 80 ms (2.00 video frames)
Interleave, preload duration : 504 ms
Writing library : LAME3.98r
Encoding settings : -m j -V 4 -q 2 -lowpass 17 -b 128
Language : Russian




   Похожие торренты   Торрент   Размер 
В этой теме нет новых непрочитанных сообщений. Виски с водкой / Whisky mit Wodka (2009) DVDRip

1 | 10

1.45 ГБ

В этой теме нет новых непрочитанных сообщений. Виски и водка / Whisky mit Wodka (2009) DVDRip | Лицензия

3 | 4

1.37 ГБ

В этой теме нет новых непрочитанных сообщений. Виски и водка / Whisky mit Wodka (2009) DVDRip от cinemastreet | КПК

0 | 2

284.73 МБ

В этой теме нет новых непрочитанных сообщений. Виски рекой / Whisky Galore (2016) WEBRip | L2

9 | 0

1.33 ГБ

В этой теме нет новых непрочитанных сообщений. Виски рекой / Whisky Galore (2016) WEBRip 720p | L2

4 | 0

1.52 ГБ

В этой теме нет новых непрочитанных сообщений. Виски: Версия Айлы + Бонус / Whisky: The Islay Edition (2011) HDRip

16 | 3

1.24 ГБ

В этой теме нет новых непрочитанных сообщений. Виски. Версия Айлы / Whisky: The Islay Edition (2011) BDRip-AVC | P1 | Омикрон

1 | 2

1.53 ГБ




Вы не можете начинать темы
Вы не можете отвечать на сообщения
Вы не можете редактировать свои сообщения
Вы не можете удалять свои сообщения
Вы не можете добавлять вложения

Перейти:  
Для Мосгорсуда, Роскомнадзора и рекламодателей: mosgorsud-torrent[собачка]yandex.ru
 Вход
ppkBB3cker v.2 © 2008-2014 @ PPK
[ Time : 0.063s | 18 Queries | GZIP : Off ]

cron