img image001 image001 image001 image001 image001 image001 image001 image001 image001 image001 image001 image001 image001 image001 image001 image001

Planets Sun Sun Sun
Статистика раздачи
Автор: Nickolas3434 | Размер: 5.52 ГБ | Добавлен: 06 апр 2014
Раздают: 180    Качают: 133
Скачать торрент
Скачать торрент
Описание торрента

СообщениеДобавлено: 06 апр 2014 

Информация о фильме
Название: В белом плену
Оригинальное название: Into the White
Год выхода: 2012
Жанр: драма, военный
Режиссер: Петтер Несс
В ролях: Флориан Лукас, Дэвид Кросс, Стиг Хенрик Хофф, Локлен Нибор, Руперт Гринт, Ким Хёуген...

О фильме:
27 апреля 1940 года, над Норвегией разгорается яростный бой двух военных самолетов: немецкого «Хейнкеля-111» и английского истребителя, который осуществлял патрулирование территории, незанятой немцами.

Во время яростного, ожесточенного сопротивления оба самолета претерпевают серьезные неполадки, и экипажи совершают экстренные, аварийные приземления на Норвежское озеро. Вооруженные немецкие пилоты берут в плен англичан. Сильная метель, с трудом передвигающиеся пилоты, 4 часа изнурительного «путешествия» и, наконец, найдено убежище в виде охотничьего домика. Они уцелели в бою, но как им выжить на одно территории с врагом, без пищи, без связи с внешним миром. Помощи ждать не откуда, можно надеяться только на себя и действуя вместе. Но смогут ли враги стать друзьями?



Выпущено: Норвегия, Швеция
Продолжительность: 01:39:58
Озвучивание:
Профессиональное (многоголосое) [Лицензия]
Авторское (одноголосое) [zamez]

Файл
Формат: MKV
Качество: BDRip 720p [NorTV]
Видео: 6500 kb/s, 1280x544
Аудио:
Russian [Лицензия] / [zamez]: AC3, 384 kb/s (6 ch)
Norwegian: AC3, 640 kb/s (6 ch)
Субтитры: Russian [Dr.pro], English
Дополнительно: Сохранены оригинальные чаптеры как на Blu-Ray
Размер: 5.52 GB
Скачать: Сэмпл

Релиз группы:




Общее
nto.The.White.2012.Blu.Ray.720p.CINEMANIA.mkv
Формат : Matroska
Версия формата : Version 4 / Version 2
Размер файла : 5,52 Гбайт
Продолжительность : 1 ч. 39 м.
Общий поток : 7908 Кбит/сек
Название фильма : Release Group CINEMANIA
Дата кодирования : UTC 2014-04-05 17:21:48
Программа кодирования : mkvmerge v6.8.0 ('Theme for Great Cities') 64bit built on Mar 2 2014 21:34:26
Библиотека кодирования : libebml v1.3.0 + libmatroska v1.4.1

Видео
Идентификатор : 1
Формат : AVC
Формат/Информация : Advanced Video Codec
Профиль формата : High@L4.1
Параметр CABAC формата : Да
Параметр ReFrames формата : 12 кадров
Идентификатор кодека : V_MPEG4/ISO/AVC
Продолжительность : 1 ч. 39 м.
Битрейт : 6500 Кбит/сек
Ширина : 1280 пикселей
Высота : 544 пикселя
Соотношение сторон : 2,35:1
Режим частоты кадров : Постоянный
Частота кадров : 25,000 кадров/сек
Цветовое пространство : YUV
Субдискретизация насыщенности : 4:2:0
Битовая глубина : 8 бит
Тип развёртки : Прогрессивная
Бит/(Пиксели*Кадры) : 0.373
Размер потока : 4,43 Гбайт (80%)
Заголовок : Release Group CINEMANIA
Библиотека кодирования : x264 core 125 r2200 999b753
Настройки программы : cabac=1 / ref=12 / deblock=1:-3:-3 / analyse=0x3:0x133 / me=umh / subme=10 / psy=1 / psy_rd=1.10:0.00 / mixed_ref=1 / me_range=24 / chroma_me=1 / trellis=2 / 8x8dct=1 / cqm=0 / deadzone=21,11 / fast_pskip=1 / chroma_qp_offset=-2 / threads=12 / lookahead_threads=2 / sliced_threads=0 / nr=0 / decimate=1 / interlaced=0 / bluray_compat=0 / constrained_intra=0 / bframes=8 / b_pyramid=2 / b_adapt=2 / b_bias=0 / direct=3 / weightb=1 / open_gop=0 / weightp=2 / keyint=250 / keyint_min=25 / scenecut=40 / intra_refresh=0 / rc_lookahead=60 / rc=2pass / mbtree=1 / bitrate=6500 / ratetol=1.0 / qcomp=0.60 / qpmin=0 / qpmax=69 / qpstep=4 / cplxblur=20.0 / qblur=0.5 / vbv_maxrate=50000 / vbv_bufsize=50000 / nal_hrd=none / ip_ratio=1.40 / aq=1:0.70
Язык : English
Default : Нет
Forced : Нет

Аудио #1
Идентификатор : 2
Формат : AC-3
Формат/Информация : Audio Coding 3
Расширение режима : CM (complete main)
Параметр Endianness формата : Big
Идентификатор кодека : A_AC3
Продолжительность : 1 ч. 39 м.
Вид битрейта : Постоянный
Битрейт : 384 Кбит/сек
Каналы : 6 каналов
Расположение каналов : Front: L C R, Side: L R, LFE
Частота : 48,0 КГц
Битовая глубина : 16 бит
Метод сжатия : С потерями
Размер потока : 275 Мбайт (5%)
Заголовок : Лицензия
Язык : Russian
Default : Да
Forced : Да

Аудио #2
Идентификатор : 3
Формат : AC-3
Формат/Информация : Audio Coding 3
Расширение режима : CM (complete main)
Параметр Endianness формата : Big
Идентификатор кодека : A_AC3
Продолжительность : 1 ч. 39 м.
Вид битрейта : Постоянный
Битрейт : 384 Кбит/сек
Каналы : 6 каналов
Расположение каналов : Front: L C R, Side: L R, LFE
Частота : 48,0 КГц
Битовая глубина : 16 бит
Метод сжатия : С потерями
Размер потока : 275 Мбайт (5%)
Заголовок : Zamez
Язык : Russian
Default : Нет
Forced : Нет

Аудио #3
Идентификатор : 4
Формат : AC-3
Формат/Информация : Audio Coding 3
Расширение режима : CM (complete main)
Параметр Endianness формата : Big
Идентификатор кодека : A_AC3
Продолжительность : 1 ч. 39 м.
Вид битрейта : Постоянный
Битрейт : 640 Кбит/сек
Каналы : 6 каналов
Расположение каналов : Front: L C R, Side: L R, LFE
Частота : 48,0 КГц
Битовая глубина : 16 бит
Метод сжатия : С потерями
Размер потока : 458 Мбайт (8%)
Язык : Norwegian
Default : Нет
Forced : Нет

Текст #1
Идентификатор : 5
Формат : UTF-8
Идентификатор кодека : S_TEXT/UTF8
Идентификатор кодека/Информация : UTF-8 Plain Text
Заголовок : Dr.pro
Язык : Russian
Default : Нет
Forced : Нет

Текст #2
Идентификатор : 6
Формат : UTF-8
Идентификатор кодека : S_TEXT/UTF8
Идентификатор кодека/Информация : UTF-8 Plain Text
Язык : English
Default : Нет
Forced : Нет

Меню
00:00:00.000 : :1
00:13:43.040 : :2
00:27:16.800 : :3
00:40:24.599 : :4
00:53:56.720 : :5
01:07:27.320 : :6
01:21:03.839 : :7
01:36:46.040 : :8



   Похожие торренты   Торрент   Размер 
В этой теме нет новых непрочитанных сообщений. В белом плену / Into the White / Comrade (2012) BDRip 1080p от CINEMANIA | P, A

146 | 185

9.28 ГБ

В этой теме нет новых непрочитанных сообщений. Снежная тюрьма / В белом плену / Into the White (2012) BDRip 720p от leonardo 59

0 | 2

1.38 ГБ

В этой теме нет новых непрочитанных сообщений. В белом плену / Снежная тюрьма / Into the White (2012) BDRip 720p от Leonardo and Scarabey | P | Лицензия

826 | 90

1.5 ГБ

В этой теме нет новых непрочитанных сообщений. В белом плену / Снежная тюрьма / Into the White (2012) BDRip 1080p

14 | 3

5.76 ГБ

В этой теме нет новых непрочитанных сообщений. В белом плену / Снежная тюрьма / Into the White (2012) BDRip-AVC от potroks | P

0 | 2

2 ГБ

В этой теме нет новых непрочитанных сообщений. В белом плену / Снежная тюрьма / Into the White (2012) BDRip от Youtracker | P, A

5 | 2

1.49 ГБ

В этой теме нет новых непрочитанных сообщений. В белом плену / Снежная тюрьма / Into the White (2012) BDRip от New-Team | P | Лицензия

92 | 25

744.71 МБ




Вы не можете начинать темы
Вы не можете отвечать на сообщения
Вы не можете редактировать свои сообщения
Вы не можете удалять свои сообщения
Вы не можете добавлять вложения

Перейти:  
 Вход
ppkBB3cker v.2 © 2008-2014 @ PPK
[ Time : 0.029s | 19 Queries | GZIP : Off ]

cron