img image001 image001 image001 image001 image001 image001 image001 image001 image001 image001 image001 image001 image001 image001 image001 image001

Planets Sun Sun Sun
Статистика раздачи
Автор: Nickolas3434 | Размер: 7.75 ГБ | Добавлен: 08 апр 2014
Раздают: 265    Качают: 164
Скачать торрент
Скачать торрент
Описание торрента

СообщениеДобавлено: 08 апр 2014 

Название: Выкуп
Оригинальное название: Butterfly on a Whee
Год выпуска: 2007
Жанр: Триллер, драма, криминал
Выпущено: Butterfly Productions, Icon Entertainment International
Режиссер: Майк Баркер
В ролях: Пирс Броснан, Мария Белло, Джерард Батлер, Клодетт Минк, Крис Астоян, Саманта Феррис, Кэтлин Дэгис, Агам Дарши, Аарон Дуглас, Джесси Грин

Перевод: Дублированный

Сюжет фильма
У Нила и Эбби Уорнер идеальный брак и идеальная жизнь. Вместе с дочкой Софи они являются живым воплощением «американской мечты»… но мечты заканчиваются… Внезапно Софи похищают, и родителям не остается ничего другого, как согласиться на условия похитителя. В мгновения ока их жизнь оказывается в руках похитителя — Райана — социопата, которому, похоже, нечего терять. Они выполняют все более и более изощренные требования Райана, пока не становится ясно, что этому человеку нужны вовсе не их деньги — он жаждет полностью, кусочек за кусочком, разрушить жизнь Нила и Эбби, жизнь, которую они строили более 10 лет…


Файл
Качество: BDRip 1080p (исходник Blu-ray)
Видео: 1920x800, 10410 Кбит/сек, 23.976 кадр/сек, AVC, x264, High@L4.1, 0.283 Бит/[Пиксели*Кадры], 2pass
Аудио 1: AC3 5.1 48 kHz 640 kbps - Дублированный
Аудио 2: AC3 5.1 48 kHz 640 kbps - English
Чаптеры: есть
Субтитры: Russian, English
Продолжительность: 01:34:57
Автор рипа: Сообщество:

Format : Matroska
Format version : Version 2
File size : 7.75 GiB
Duration : 1h 34mn
Overall bit rate : 11.7 Mbps
Movie name : Vykup.(2007).BDRip.1080p.[denis100]
Encoded date : UTC 2014-04-07 08:17:04
Writing application : mkvmerge v5.8.0 ('No Sleep / Pillow') built on Sep 2 2012 15:37:04
Writing library : libebml v1.2.3 + libmatroska v1.3.0

Video
ID : 1
Format : AVC
Format/Info : Advanced Video Codec
Format profile : High@L4.1
Format settings, CABAC : Yes
Format settings, ReFrames : 5 frames
Codec ID : V_MPEG4/ISO/AVC
Duration : 1h 34mn
Bit rate : 10.4 Mbps
Width : 1 920 pixels
Height : 800 pixels
Display aspect ratio : 2.40:1
Frame rate mode : Constant
Frame rate : 23.976 fps
Color space : YUV
Chroma subsampling : 4:2:0
Bit depth : 8 bits
Scan type : Progressive
Bits/(Pixel*Frame) : 0.283
Stream size : 6.75 GiB (87%)
Title : Vykup.(2007).BDRip.1080p.[denis100]
Writing library : x264 core 138 r2358 9e941d1
Encoding settings : cabac=1 / ref=5 / deblock=1:-3:-3 / analyse=0x3:0x133 / me=umh / subme=11 / psy=1 / psy_rd=1.00:0.10 / mixed_ref=1 / me_range=32 / chroma_me=1 / trellis=2 / 8x8dct=1 / cqm=0 / deadzone=21,11 / fast_pskip=0 / chroma_qp_offset=-3 / threads=6 / lookahead_threads=1 / sliced_threads=0 / nr=0 / decimate=1 / interlaced=0 / bluray_compat=0 / constrained_intra=0 / bframes=6 / b_pyramid=2 / b_adapt=2 / b_bias=0 / direct=3 / weightb=1 / open_gop=0 / weightp=2 / keyint=240 / keyint_min=23 / scenecut=40 / intra_refresh=0 / rc=2pass / mbtree=0 / bitrate=10410 / ratetol=1.0 / qcomp=0.60 / qpmin=0 / qpmax=69 / qpstep=4 / cplxblur=20.0 / qblur=0.5 / ip_ratio=1.40 / pb_ratio=1.30 / aq=2:0.90
Language : English
Default : Yes
Forced : No

Audio #1
ID : 2
Format : AC-3
Format/Info : Audio Coding 3
Mode extension : CM (complete main)
Format settings, Endianness : Big
Codec ID : A_AC3
Duration : 1h 34mn
Bit rate mode : Constant
Bit rate : 640 Kbps
Channel(s) : 6 channels
Channel positions : Front: L C R, Side: L R, LFE
Sampling rate : 48.0 KHz
Bit depth : 16 bits
Compression mode : Lossy
Stream size : 435 MiB (5%)
Title : Дублированный
Language : Russian
Default : Yes
Forced : No

Audio #2
ID : 3
Format : AC-3
Format/Info : Audio Coding 3
Mode extension : CM (complete main)
Format settings, Endianness : Big
Codec ID : A_AC3
Duration : 1h 34mn
Bit rate mode : Constant
Bit rate : 640 Kbps
Channel(s) : 6 channels
Channel positions : Front: L C R, Side: L R, LFE
Sampling rate : 48.0 KHz
Bit depth : 16 bits
Compression mode : Lossy
Stream size : 435 MiB (5%)
Title : English
Language : English
Default : No
Forced : No

Text #1
ID : 4
Format : UTF-8
Codec ID : S_TEXT/UTF8
Codec ID/Info : UTF-8 Plain Text
Title : Russian
Language : Russian
Default : No
Forced : No

Text #2
ID : 5
Format : UTF-8
Codec ID : S_TEXT/UTF8
Codec ID/Info : UTF-8 Plain Text
Title : English
Language : English
Default : No
Forced : No

Menu
00:00:00.000 : en:Chapter 1
00:10:19.791 : en:Chapter 2
00:16:26.333 : en:Chapter 3
00:24:00.250 : en:Chapter 4
00:29:46.583 : en:Chapter 5
00:36:57.958 : en:Chapter 6
00:44:16.041 : en:Chapter 7
00:51:54.958 : en:Chapter 8
01:04:00.375 : en:Chapter 9
01:14:57.958 : en:Chapter 10
01:21:52.000 : en:Chapter 11
01:29:05.625 : en:Chapter 12
x264 [info]: frame I:861 Avg QP:15.15 size:183452
x264 [info]: frame P:33035 Avg QP:17.17 size: 86883
x264 [info]: frame B:102704 Avg QP:19.13 size: 42656



   Похожие торренты   Торрент   Размер 
В этой теме нет новых непрочитанных сообщений. Выкуп / Butterfly on a Wheel (2007) BDRip 720p от NNNB | ITA Transfer

31 | 1

4.37 ГБ

В этой теме нет новых непрочитанных сообщений. Выкуп / Butterfly on a Wheel (Майк Баркер) [2007, триллер, драма, криминал, BDRip-AVC] MVO

4 | 0

1.31 ГБ

В этой теме нет новых непрочитанных сообщений. Выкуп / Butterfly on a Wheel (2006) BDRip 720p | D

8 | 1

4.36 ГБ

В этой теме нет новых непрочитанных сообщений. Месть нерожденному / A l'interieur (2007) BDRip 1080p от denis 100

50 | 20

7.66 ГБ

В этой теме нет новых непрочитанных сообщений. Удачи, Чак! / Good Luck Chuck (2007) BDRip 1080p от denis 100 | Unrated Director's Cut

103 | 107

7.94 ГБ

В этой теме нет новых непрочитанных сообщений. Вороны: Начало / Crows zero (2007) BDRip от denis 100 | P2

32 | 4

2.05 ГБ

В этой теме нет новых непрочитанных сообщений. В долине Эла / In the Valley of Elah (2007) BDRip 720p от denis 100

29 | 18

5.69 ГБ




Вы не можете начинать темы
Вы не можете отвечать на сообщения
Вы не можете редактировать свои сообщения
Вы не можете удалять свои сообщения
Вы не можете добавлять вложения

Перейти:  
 Вход
ppkBB3cker v.2 © 2008-2014 @ PPK
[ Time : 0.021s | 16 Queries | GZIP : Off ]

cron