img image001 image001 image001 image001 image001 image001 image001 image001 image001 image001 image001 image001 image001 image001 image001

Planets Sun Sun Sun
Статистика раздачи
Автор: Nickolas3434 | Размер: 4.32 ГБ | Добавлен: 09 апр 2014
Раздают: 613    Качают: 318
Скачать торрент
Скачать торрент
Описание торрента

СообщениеДобавлено: 09 апр 2014 


Информация о фильме
Название: Далласский клуб покупателей
Оригинальное название: Dallas Buyers Club
Год выхода: 2013
Жанр: драма, биография, история
Режиссер: Жан-Марк Валле

В ролях: Мэттью МакКонахи, Джаред Лето, Дженнифер Гарнер, Дэнис О’Хэйр, Стив Зан, Майкл О’Нил, Даллас Робертс, Гриффин Данн, Кевин О. Ранкин
О ФИЛЬМЕ
Реальная история Рона Вудруфа, техасского электрика, у которого в 1986 году обнаружили СПИД. Тогда врачи отвели ему всего полгода, но он не пожелал смириться со смертным приговором и сумел продлить свою жизнь, принимая нетрадиционные лекарства, а затем наладил подпольный и прибыльный бизнес по продаже их другим больным.

Страна: США
Производство: Truth Entertainment (II), Voltage Pictures
Продолжительность: 01:56:57
Перевод 1: Профессиональный (дублированный) [Лицензия R5]
Перевод 2: Авторский (одноголосый) [C. Визгунов]
Файл
Качество: BDRip 720p
Формат: MKV
Видео: AVC, 1280x534 (2.40:1) at 23.976 fps, AVC at 4002 kbps avg, 0.244 bit/pixel
Аудио 1: Русский / AC3 / 6ch / 384 kbps | DUB R5
Аудио 2: Русский / AC3 / 6ch / 448 kbps | C. Визгунов
Аудио 3: Английский / AC3 / 6ch / 448 kbps | Original
Субтитры: Русские, Английские
Дополнительно: Сохранены оригинальные чаптеры как на Blu-Ray
* Перевод С. Визгунова выполнен спонсорами ресурса e180. Меценаты: luka69, ARTYq, kabukiman, tide, xerman13, oleg-k, foxlight, markinscor, Iceman, denis_mgn_1987, carnivale, GKillah, MyxAmoP, Maldivess, Rayan, Некрасов, Slimka, Эдуард, ZeDOK, magvai, plastm, anton966, Lee Ray, Guyver, vik19662007, Andrey_Tula, Марлон, masta, Skoped, uchitel538, Loki1982, kiruxa-k. Всем СПАСИБО!




General
Unique ID : 246265513288995907237837707953896131960 (0xB945033BCE55696090AD9091D4F38D78)
Complete name : H:Dallas.Buyers.Club.2013.BD.720.Hot-Film.mkv
Format : Matroska
Format version : Version 2
File size : 4.32 GiB
Duration : 01:56:57
Overall bit rate : 5 283 Kbps
Encoded date : UTC 2014-04-08 20:25:42
Writing application : mkvmerge v5.8.0 ('No Sleep / Pillow') built on Sep 2 2012 15:37:04
Writing library : libebml v1.2.3 + libmatroska v1.3.0
Attachment : Yes
Video
ID : 1
Format : AVC
Format/Info : Advanced Video Codec
Format profile : High@L4.1
Format settings, CABAC : Yes
Format settings, ReFrames : 9 frames
Codec ID : V_MPEG4/ISO/AVC
Duration : 1h 56mn
Bit rate : 4 002 Kbps
Width : 1 280 pixels
Height : 534 pixels
Display aspect ratio : 2.40:1
Frame rate mode : Constant
Frame rate : 23.976 fps
Color space : YUV
Chroma subsampling : 4:2:0
Bit depth : 8 bits
Scan type : Progressive
Bits/(Pixel*Frame) : 0.244
Stream size : 3.18 GiB (74%)
Writing library : x264 core 138 r2358 9e941d1
Encoding settings : cabac=1 / ref=9 / deblock=1:-3:-3 / analyse=0x3:0x113 / me=umh / subme=11 / psy=1 / psy_rd=1.05:0.10 / mixed_ref=1 / me_range=32 / chroma_me=1 / trellis=2 / 8x8dct=1 / cqm=0 / deadzone=21,11 / fast_pskip=0 / chroma_qp_offset=-3 / threads=2 / lookahead_threads=1 / sliced_threads=0 / nr=0 / decimate=0 / interlaced=0 / bluray_compat=0 / constrained_intra=0 / bframes=8 / b_pyramid=2 / b_adapt=2 / b_bias=0 / direct=3 / weightb=1 / open_gop=0 / weightp=2 / keyint=240 / keyint_min=23 / scenecut=40 / intra_refresh=0 / rc_lookahead=40 / rc=2pass / mbtree=0 / bitrate=4002 / ratetol=1.0 / qcomp=0.60 / qpmin=0 / qpmax=69 / qpstep=4 / cplxblur=20.0 / qblur=0.5 / vbv_maxrate=50000 / vbv_bufsize=62500 / nal_hrd=none / ip_ratio=1.40 / pb_ratio=1.30 / aq=1:1.00
Language : English
Default : Yes
Forced : No
Audio #1
ID : 2
Format : AC-3
Format/Info : Audio Coding 3
Mode extension : CM (complete main)
Format settings, Endianness : Big
Codec ID : A_AC3
Duration : 1h 56mn
Bit rate mode : Constant
Bit rate : 384 Kbps
Channel(s) : 6 channels
Channel positions : Front: L C R, Side: L R, LFE
Sampling rate : 48.0 KHz
Bit depth : 16 bits
Compression mode : Lossy
Stream size : 321 MiB (7%)
Title : DUB R5
Language : Russian
Default : Yes
Forced : No
Audio #2
ID : 3
Format : AC-3
Format/Info : Audio Coding 3
Mode extension : CM (complete main)
Format settings, Endianness : Big
Codec ID : A_AC3
Duration : 1h 56mn
Bit rate mode : Constant
Bit rate : 448 Kbps
Channel(s) : 6 channels
Channel positions : Front: L C R, Side: L R, LFE
Sampling rate : 48.0 KHz
Bit depth : 16 bits
Compression mode : Lossy
Stream size : 375 MiB (8%)
Title : C. Визгунов
Language : Russian
Default : No
Forced : No
Audio #3
ID : 4
Format : AC-3
Format/Info : Audio Coding 3
Mode extension : CM (complete main)
Format settings, Endianness : Big
Codec ID : A_AC3
Duration : 1h 56mn
Bit rate mode : Constant
Bit rate : 448 Kbps
Channel(s) : 6 channels
Channel positions : Front: L C R, Side: L R, LFE
Sampling rate : 48.0 KHz
Bit depth : 16 bits
Compression mode : Lossy
Stream size : 375 MiB (8%)
Title : Original
Language : English
Default : No
Forced : No
Text #1
ID : 5
Format : UTF-8
Codec ID : S_TEXT/UTF8
Codec ID/Info : UTF-8 Plain Text
Title : FULL Notabenoid
Language : Russian
Default : No
Forced : No
Text #2
ID : 6
Format : UTF-8
Codec ID : S_TEXT/UTF8
Codec ID/Info : UTF-8 Plain Text
Title : FULL
Language : English
Default : No
Forced : No
Text #3
ID : 7
Format : UTF-8
Codec ID : S_TEXT/UTF8
Codec ID/Info : UTF-8 Plain Text
Title : SDH
Language : English
Default : No
Forced : No
Menu
00:00:00.000 : :Chapter 01
00:06:20.672 : :Chapter 02
00:11:52.879 : :Chapter 03
00:18:41.579 : :Chapter 04
00:24:55.703 : :Chapter 05
00:29:44.282 : :Chapter 06
00:35:15.697 : :Chapter 07
00:41:33.282 : :Chapter 08
00:46:32.873 : :Chapter 09
00:51:49.023 : :Chapter 10
00:55:37.834 : :Chapter 11
01:01:25.974 : :Chapter 12
01:07:16.783 : :Chapter 13
01:12:37.645 : :Chapter 14
01:19:55.249 : :Chapter 15
01:28:25.550 : :Chapter 16
01:36:56.644 : :Chapter 17
01:43:06.639 : :Chapter 18
01:47:59.473 : :Chapter 19
01:52:12.851 : :Chapter 20

Релиз от:



   Похожие торренты   Торрент   Размер 
В этой теме нет новых непрочитанных сообщений. Далласский клуб покупателей / Dallas Buyers Club (2013) BDRip 720p | L1

5 | 2

3.79 ГБ

В этой теме нет новых непрочитанных сообщений. Далласский клуб покупателей / Dallas Buyers Club (2013) BDRip 720p | L1

10 | 2

5.62 ГБ

В этой теме нет новых непрочитанных сообщений. Далласский клуб покупателей / Dallas Buyers Club (2013) BDRip 720p | P

118 | 6

6.9 ГБ

В этой теме нет новых непрочитанных сообщений. Далласский клуб покупателей / Dallas Buyers Club (2013) BDRip 720p от New-Team

94 | 6

6.08 ГБ

В этой теме нет новых непрочитанных сообщений. Далласский клуб покупателей / Dallas Buyers Club (2013) BDRip 720p от denis 100 | P,A

444 | 176

6.71 ГБ

В этой теме нет новых непрочитанных сообщений. Далласский клуб покупателей / Dallas Buyers Club (2013) BDRip 720p от New-Team | D, A | лицензия

648 | 159

8.1 ГБ

В этой теме нет новых непрочитанных сообщений. Далласский клуб покупателей / Dallas Buyers Club (2013) BDRip 720p от Leonardo and Scarabey | Лицензия

1573 | 128

3.54 ГБ




Вы не можете начинать темы
Вы не можете отвечать на сообщения
Вы не можете редактировать свои сообщения
Вы не можете удалять свои сообщения
Вы не можете добавлять вложения

Перейти:  
Для Мосгорсуда, Роскомнадзора и рекламодателей: mosgorsud-torrent[собачка]yandex.ru
 Вход
ppkBB3cker v.2 © 2008-2014 @ PPK
[ Time : 0.101s | 15 Queries | GZIP : Off ]

Торрент трекер RUTOR.IN, Не можете зайти на rutor.org? Какой новый адрес рутор? Какое зеркало рутор? Не работает rutor.org и зеркала? Тогда наш торрент специально для вас. Rutor.in неофициальное зеркало rutor. В случае если у Вас заблокирован rutor или вдруг Вы не можете на него зайти, то Вы без труда сможете скачать бесплатно и без рекламы последние новинки кино, игр, сериалов и прочего у нас, на Rutor.in. Не нужно использовать прокси, чтобы зайти на рутор, достаточно воспользоваться нашим ресурсом. Все новые фильмы, игры, сериалы, книги и музыка за 2013 и 2014 годы через торрент бесплатно. Скачивайте фильмы в хорошем качестве, игры для пк, xbox, playstation без регистрации. У нас вы найдете новые Зарубежные сериалы и Русские сериалы 2013, 2014, 2015 годов. Оставайтесь с нами, качайте любимые фильмы, игры, сериалы, книги и музыку.