img image001 image001 image001 image001 image001 image001 image001 image001 image001 image001 image001 image001 image001 image001 image001 image001

Planets Sun Sun Sun
Статистика раздачи
Автор: Nickolas3434 | Размер: 7.75 ГБ | Добавлен: 15 апр 2014
Раздают: 273    Качают: 117
Скачать торрент
Скачать торрент
Описание торрента

СообщениеДобавлено: 15 апр 2014 


Информация о фильме
    Русское название: Коматозники
    Оригинальное название: Flatliners
    Год выхода: 1990
    Жанр: Фантастика, триллер, драма
    Режиссер: Джоэл Шумахер
    Выпущено: США
    Продолжительность: 01:54:12
    Перевод: Дублированный
    В ролях: Кифер Сазерленд, Джулия Робертс, Кевин Бейкон, Уильям Болдуин, Оливер Плэтт, Кимберли Скотт, Джошуа Рудой, Бенжамин Мутон, Аерик Иган, Кеша Рид...


Сюжет фильма
    Достаточно сделать всего один шаг, чтобы перейти хрупкую грань между жизнью и смертью. Группа студентов-медиков выбрала для своих исследований запретную и опасную область. Будущие врачи решили проникнуть в тайну небытия, которое наступает после остановки сердца. Один за другим студенты погружаются в состояние клинической смерти, отправляясь в непредсказуемое путешествие по ту сторону жизни. Результаты исследований оказались настолько неожиданными, что побывавший ТАМ уже не может продолжать прежний образ жизни, даже если бы и хотел.


Файл
    Качество: BDRip 1080p (исходник Blu-ray Disc)
    Видео: 1920x816, 8635 Кбит/сек, 23,976 кадр/сек, AVC, x264, High@L4.1, 2.35:1, 0.230 Бит/[Пиксели*Кадры]
    Аудио 1: AC-3, 448 Кбит/сек, 6 канала(ов), 48,0 КГц - Дублированный / Русский
    Аудио 2: AC-3, 640 Кбит/сек, 6 канала(ов), 48,0 КГц - Оригинал / Английский
    Субтитры: Русские | Полные, Английские | Полные
    Чаптеры (Главы): Есть



Автор Рипа: Сообщество:



Format : Matroska
Format version : Version 2
File size : 7.75 GiB
Duration : 1h 54mn
Overall bit rate : 9 713 Kbps
Movie name : Коматозники.(1990).BDRip.1080p.[envy]
Encoded date : UTC 2014-04-14 12:18:40
Writing application : mkvmerge v5.8.0 ('No Sleep / Pillow') built on Sep 2 2012 15:37:04
Writing library : libebml v1.2.3 + libmatroska v1.3.0

Video
ID : 1
Format : AVC
Format/Info : Advanced Video Codec
Format profile : High@L4.1
Format settings, CABAC : Yes
Format settings, ReFrames : 5 frames
Codec ID : V_MPEG4/ISO/AVC
Duration : 1h 54mn
Bit rate : 8 635 Kbps
Width : 1 920 pixels
Height : 816 pixels
Display aspect ratio : 2.35:1
Frame rate mode : Constant
Frame rate : 23.976 fps
Color space : YUV
Chroma subsampling : 4:2:0
Bit depth : 8 bits
Scan type : Progressive
Bits/(Pixel*Frame) : 0.230
Stream size : 6.73 GiB (87%)
Title : Коматозники.(1990).BDRip.1080p.[envy]
Writing library : x264 core 142 r2409 d6b4e63
Encoding settings : cabac=1 / ref=5 / deblock=1:-3:-2 / analyse=0x3:0x133 / me=umh / subme=11 / psy=1 / psy_rd=1.00:0.00 / mixed_ref=1 / me_range=32 / chroma_me=1 / trellis=2 / 8x8dct=1 / cqm=0 / deadzone=21,11 / fast_pskip=0 / chroma_qp_offset=-2 / threads=12 / lookahead_threads=1 / sliced_threads=0 / nr=0 / decimate=1 / interlaced=0 / bluray_compat=0 / constrained_intra=0 / bframes=5 / b_pyramid=2 / b_adapt=2 / b_bias=0 / direct=3 / weightb=1 / open_gop=0 / weightp=2 / keyint=240 / keyint_min=23 / scenecut=40 / intra_refresh=0 / rc=2pass / mbtree=0 / bitrate=8635 / ratetol=2.0 / qcomp=0.60 / qpmin=0 / qpmax=69 / qpstep=4 / cplxblur=20.0 / qblur=0.5 / ip_ratio=1.40 / pb_ratio=1.30 / aq=2:1.00
Language : English
Default : Yes
Forced : No

Audio #1
ID : 2
Format : AC-3
Format/Info : Audio Coding 3
Mode extension : CM (complete main)
Format settings, Endianness : Big
Codec ID : A_AC3
Duration : 1h 54mn
Bit rate mode : Constant
Bit rate : 448 Kbps
Channel count : 6 channels
Channel positions : Front: L C R, Side: L R, LFE
Sampling rate : 48.0 KHz
Bit depth : 16 bits
Compression mode : Lossy
Stream size : 366 MiB (5%)
Title : Dub
Language : Russian
Default : Yes
Forced : No

Audio #2
ID : 3
Format : AC-3
Format/Info : Audio Coding 3
Mode extension : CM (complete main)
Format settings, Endianness : Big
Codec ID : A_AC3
Duration : 1h 54mn
Bit rate mode : Constant
Bit rate : 640 Kbps
Channel count : 6 channels
Channel positions : Front: L C R, Side: L R, LFE
Sampling rate : 48.0 KHz
Bit depth : 16 bits
Compression mode : Lossy
Stream size : 523 MiB (7%)
Title : Eng
Language : English
Default : No
Forced : No

Text #1
ID : 4
Format : UTF-8
Codec ID : S_TEXT/UTF8
Codec ID/Info : UTF-8 Plain Text
Title : full
Language : Russian
Default : No
Forced : No

Text #2
ID : 5
Format : UTF-8
Codec ID : S_TEXT/UTF8
Codec ID/Info : UTF-8 Plain Text
Title : full
Language : English
Default : No
Forced : No

Menu
00:00:00.000 : :Chapter 01
00:06:38.022 : :Chapter 02
00:13:38.484 : :Chapter 03
00:20:42.824 : :Chapter 04
00:28:33.002 : :Chapter 05
00:34:11.883 : :Chapter 06
00:42:23.624 : :Chapter 07
00:48:03.422 : :Chapter 08
00:56:50.407 : :Chapter 09
01:00:40.595 : :Chapter 10
01:10:51.497 : :Chapter 11
01:16:34.256 : :Chapter 12
01:25:09.562 : :Chapter 13
01:30:37.640 : :Chapter 14
01:39:09.109 : :Chapter 15
01:45:42.252 : :Chapter 16


При поддержке:



   Похожие торренты   Торрент   Размер 
В этой теме нет новых непрочитанных сообщений. Коматозники / Flatliners (1990) BDRip-AVC | D

18 | 1

2.91 ГБ

В этой теме нет новых непрочитанных сообщений. Коматозники / Flatliners (1990) BDRip 720p

90 | 6

5.4 ГБ

В этой теме нет новых непрочитанных сообщений. Коматозники / Flatliners (1990) BDRip-AVC от MediaClub

53 | 5

2.92 ГБ

В этой теме нет новых непрочитанных сообщений. Коматозники / Flatliners (1990) BDRip 720p | D, P, P2, A

50 | 37

5.99 ГБ

В этой теме нет новых непрочитанных сообщений. Коматозники / Flatliners (1990) BDRip от PowerTracker

45 | 5

1.45 ГБ

В этой теме нет новых непрочитанных сообщений. Коматозники / Flatliners (1990) BDRip от HQCLUB

49 | 9

2.18 ГБ

В этой теме нет новых непрочитанных сообщений. Коматозники / Flatliners (1990) BDRemux

15 | 4

17.9 ГБ




Вы не можете начинать темы
Вы не можете отвечать на сообщения
Вы не можете редактировать свои сообщения
Вы не можете удалять свои сообщения
Вы не можете добавлять вложения

Перейти:  
 Вход
ppkBB3cker v.2 © 2008-2014 @ PPK
[ Time : 0.025s | 16 Queries | GZIP : Off ]

cron