img image001 image001 image001 image001 image001 image001 image001 image001 image001 image001 image001 image001 image001 image001 image001

Planets Sun Sun Sun
Статистика раздачи
Автор: Nickolas3434 | Размер: 3.67 ГБ | Добавлен: 15 апр 2014
Раздают: 47    Качают: 58
Скачать торрент
Скачать торрент
Описание торрента

СообщениеДобавлено: 15 апр 2014 

Информация о фильме
Название: Переполох на свадьбе
Оригинальное название: The Knot
Год выхода: 2012
Жанр: Kомедия, мелодрама
Режиссер: Джесси Лоуренс
В ролях: Ноэль Кларк, Мена Сувари, Мэттью МакНалти, Талула Райли, Джейсон Мацца, Сюзанна Филдинг, Дэвей Фербенкс, Бретт Голдстин, Луиз Дилан, Рода Монтемайор

О фильме:
Александра и Джереми вступают в брак. К несчастью, свадебное торжество идет не по плану. Но смогут ли беспечный шафер, опаздывающие подружки невесты и гости-скептики помешать истинной любви?


Страна: Великобритания
Студия: Unstoppable Entertainment, New Treatment, Beactive Entertainment
Продолжительность: 01:28:14
Перевод: Профессиональный многоголосый (НТВ+)

Файл
Кодек: MPEG-4 AVC
Качество: HDTVRip 1080p
Видео: 5500 Кбит/с, 1920x816, 25.000 кадр/с
Звук: Русский (АС3, 6 ch, 448 Кбит/с)

Семпл


Общее
Полное имя : Perepolox.na.svadbe.2012.x264.HDTVRip(1080p).MediaClub.mkv
Формат : Matroska
Версия формата : Version 2
Размер файла : 3,67 Гбайт
Продолжительность : 1 ч. 28 м.
Общий поток : 5947 Кбит/сек
Дата кодирования : UTC 2014-04-15 16:08:01
Программа кодирования : mkvmerge v5.4.0 ('Piper') built on Mar 10 2012 13:34:39
Библиотека кодирования : libebml v1.2.3 + libmatroska v1.3.0

Видео
Идентификатор : 1
Формат : AVC
Формат/Информация : Advanced Video Codec
Профиль формата : High@L4.1
Параметр CABAC формата : Да
Параметр ReFrames формата : 5 кадров
Идентификатор кодека : V_MPEG4/ISO/AVC
Продолжительность : 1 ч. 28 м.
Битрейт : 5500 Кбит/сек
Ширина : 1920 пикселей
Высота : 816 пикселей
Соотношение сторон : 2,35:1
Режим частоты кадров : Постоянный
Частота кадров : 25,000 кадров/сек
Цветовое пространство : YUV
Субдискретизация насыщенности : 4:2:0
Битовая глубина : 8 бит
Тип развёртки : Прогрессивная
Бит/(Пиксели*Кадры) : 0.140
Размер потока : 3,32 Гбайт (90%)
Библиотека кодирования : x264 core 125 r2208 d9d2288
Настройки программы : cabac=1 / ref=5 / deblock=1:-2:-2 / analyse=0x3:0x133 / me=umh / subme=10 / psy=1 / psy_rd=1.00:0.15 / mixed_ref=1 / me_range=32 / chroma_me=1 / trellis=2 / 8x8dct=1 / cqm=0 / deadzone=21,11 / fast_pskip=0 / chroma_qp_offset=-3 / threads=6 / lookahead_threads=1 / sliced_threads=0 / nr=0 / decimate=0 / interlaced=0 / bluray_compat=0 / constrained_intra=0 / bframes=8 / b_pyramid=2 / b_adapt=2 / b_bias=0 / direct=3 / weightb=1 / open_gop=0 / weightp=2 / keyint=250 / keyint_min=25 / scenecut=40 / intra_refresh=0 / rc=2pass / mbtree=0 / bitrate=5500 / ratetol=1.0 / qcomp=0.60 / qpmin=0 / qpmax=69 / qpstep=4 / cplxblur=20.0 / qblur=0.5 / ip_ratio=1.40 / pb_ratio=1.30 / aq=1:0.80
Default : Да
Forced : Нет

Аудио
Идентификатор : 2
Формат : AC-3
Формат/Информация : Audio Coding 3
Расширение режима : CM (complete main)
Параметр Endianness формата : Big
Идентификатор кодека : A_AC3
Продолжительность : 1 ч. 28 м.
Вид битрейта : Постоянный
Битрейт : 448 Кбит/сек
Каналы : 6 каналов
Расположение каналов : Front: L C R, Side: L R, LFE
Частота : 48,0 КГц
Битовая глубина : 16 бит
Метод сжатия : С потерями
Размер потока : 283 Мбайт (8%)
Язык : Russian
Default : Да
Forced : Нет


Релиз от:



   Похожие торренты   Торрент   Размер 
В этой теме нет новых непрочитанных сообщений. Переполох на свадьбе / The Knot (2012) HDTVRip-AVC от MediaClub | P

163 | 38

1.45 ГБ

В этой теме нет новых непрочитанных сообщений. Переполох на свадьбе / The Knot (2012) HDTVRip 720p от MediaClub | P

280 | 63

2.12 ГБ

В этой теме нет новых непрочитанных сообщений. Переполох на свадьбе / The Knot (2012) HDTVRip-AVC | iPhone | P

67 | 33

719.49 МБ

В этой теме нет новых непрочитанных сообщений. Переполох на свадьбе / The knot (2012) BDRip | P2

79 | 7

1.46 ГБ

В этой теме нет новых непрочитанных сообщений. Свадебный переполох - Владимир Наумов и Наталья Белохвостикова [эфир от 23.03] (2014) HDTVRip от MediaClub

11 | 2

538.32 МБ

В этой теме нет новых непрочитанных сообщений. Разрешите тебя поцеловать... на свадьбе (2013) WEB-DL 720p от MediaClub | Лицензия

194 | 46

1.23 ГБ

В этой теме нет новых непрочитанных сообщений. Певец на свадьбе / The Wedding Singer (1998) BDRip 720p от MediaClub | P, A

49 | 36

4.76 ГБ




Вы не можете начинать темы
Вы не можете отвечать на сообщения
Вы не можете редактировать свои сообщения
Вы не можете удалять свои сообщения
Вы не можете добавлять вложения

Перейти:  
 Вход
ppkBB3cker v.2 © 2008-2014 @ PPK
[ Time : 0.024s | 19 Queries | GZIP : Off ]

cron