img image001 image001 image001 image001 image001 image001 image001 image001 image001 image001 image001 image001 image001 image001 image001

Planets Sun Sun Sun
Статистика раздачи
Автор: Снежана | Размер: 4.37 ГБ | Добавлен: 20 июл 2013
Раздают: 64    Качают: 13
Скачать торрент
Скачать торрент
Описание торрента

СообщениеДобавлено: 20 июл 2013 

Темный рыцарь / The Dark Knight (2008) BDRip 720p
от DHT-Movies

#77

Информация о фильме
Название: Темный рыцарь
Оригинальное название: The Dark Knight
Год выхода: 2008
Жанр: Фантастика, боевик, триллер, криминал
Режиссер: Кристофер Нолан
В ролях: Кристиан Бэйл, Аарон Экхарт, Хит Леджер, Майкл Кейн, Мэгги Джилленхол, Гари Олдман, Морган Фриман, Моника Карнен, Рон Дин, Киллиан Мёрфи

О фильме:
Бэтмен поднимает ставки в войне с криминалом. С помощью лейтенанта Джима Гордона и прокурора Харви Дента он намерен очистить улицы от преступности, отравляющей город. Сотрудничество оказывается эффективным, но скоро они обнаружат себя посреди хаоса, развязанного восходящим криминальным гением, известным испуганным горожанам под именем Джокер.

Страна: США
Студия: Warner Bros. Pictures
Продолжительность: 02:32:13
Перевод: Дублированный


Релиз от: | by Electro


Файл
Кодек: x.264
Качество: BDRip 720p [рип с Blu-Ray 1080p]
Видео: x.264@L4.1, 1280x720 , 23.976 fps, ~3339 kbps avg, 0.147 bit/pixel.
Аудио 1: 48 kHz, AC3 Dolby Digital, 3/2 (L,C,R,l,r) + LFE ch, ~384.00 kbps avg | Дубляж
Аудио 2: 48 kHz, AC3 Dolby Digital, 3/2 (L,C,R,l,r) + LFE ch, ~384.00 kbps avg | Оригинал
Субтитры: Русские, Английские

Format : Matroska
File size : 4.37 GiB
Duration : 2h 32mn
Overall bit rate : 4 107 Kbps
Movie name : Reliz by ElecTro
Writing application : mkvmerge v4.6.0 ('Still Crazy After All These Years') ñáîðêà îò Apr 1 2011 21:01:49
Writing library : libebml v1.2.0 + libmatroska v1.1.0
Video #1
ID : 1
Format : AVC
Format/Info : Advanced Video Codec
Format profile : High@L4.1
Format settings, CABAC : Yes
Format settings, ReFrames : 5 frames
Muxing mode : Container profile=Unknown@4.1
Codec ID : V_MPEG4/ISO/AVC
Duration : 2h 32mn
Bit rate : 3 339 Kbps
Width : 1 280 pixels
Height : 720 pixels
Display aspect ratio : 16:9
Frame rate : 23.976 fps
Resolution : 24 bits
Colorimetry : 4:2:0
Scan type : Progressive
Bits/(Pixel*Frame) : 0.147
Stream size : 3.46 GiB (79%)
Writing library : x264 core 115 r1937 aa21558
Encoding settings : cabac=1 / ref=5 / deblock=1:-2:-2 / analyse=0x3:0x113 / me=umh / subme=9 / psy=1 / psy_rd=1.00:0.00 / mixed_ref=1 / me_range=24 / chroma_me=1 / trellis=2 / 8x8dct=1 / cqm=0 / deadzone=21,11 / fast_pskip=1 / chroma_qp_offset=-2 / threads=6 / sliced_threads=0 / nr=0 / decimate=1 / interlaced=0 / bluray_compat=0 / constrained_intra=0 / bframes=5 / b_pyramid=2 / b_adapt=2 / b_bias=0 / direct=1 / weightb=1 / open_gop=0 / weightp=2 / keyint=250 / keyint_min=23 / scenecut=40 / intra_refresh=0 / rc_lookahead=40 / rc=2pass / mbtree=1 / bitrate=3339 / ratetol=1.0 / qcomp=0.60 / qpmin=0 / qpmax=69 / qpstep=4 / cplxblur=20.0 / qblur=0.5 / ip_ratio=1.40 / aq=1:1.00
Audio #2
ID : 2
Format : AC-3
Format/Info : Audio Coding 3
Codec ID : A_AC3
Duration : 2h 32mn
Bit rate mode : Constant
Bit rate : 384 Kbps
Channel(s) : 6 channels
Channel positions : Front: L C R, Surround: L R, LFE
Sampling rate : 48.0 KHz
Stream size : 418 MiB (9%)
Title : Dub
Language : Russian
Audio #5
ID : 5
Format : AC-3
Format/Info : Audio Coding 3
Codec ID : A_AC3
Duration : 2h 32mn
Bit rate mode : Constant
Bit rate : 384 Kbps
Channel(s) : 6 channels
Channel positions : Front: L C R, Surround: L R, LFE
Sampling rate : 48.0 KHz
Stream size : 418 MiB (9%)
Title : Original
Text #3
ID : 3
Format : UTF-8
Codec ID : S_TEXT/UTF8
Codec ID/Info : UTF-8 Plain Text
Language : Russian
Text #4
ID : 4
Format : UTF-8
Codec ID : S_TEXT/UTF8
Codec ID/Info : UTF-8 Plain Text




   Похожие торренты   Торрент   Размер 
В этой теме нет новых непрочитанных сообщений. Темный рыцарь / The Dark Knight (2008) BDRip 720p от FreeHD

37 | 5

8.34 ГБ

В этой теме нет новых непрочитанных сообщений. Темный рыцарь / The Dark Knight (2008) BDRip 720p от HQ-ViDEO | IMAX

54 | 13

9.08 ГБ

В этой теме нет новых непрочитанных сообщений. Темный рыцарь / The Dark Knight (2008) BDRip 720p от leonardo 59 | iPad

57 | 7

4 ГБ

В этой теме нет новых непрочитанных сообщений. Темный рыцарь / The Dark Knight (2008) BDRip 720p от NNNB | IMAX | D,P,A

188 | 24

11.53 ГБ

В этой теме нет новых непрочитанных сообщений. Темный Рыцарь / The Dark Knight (2008) BDRip-720p | Дополнительные материалы

23 | 11

5.33 ГБ

В этой теме нет новых непрочитанных сообщений. Темный рыцарь / The Dark Knight (2008) BDRip-AVC

1334 | 52

1.45 ГБ

В этой теме нет новых непрочитанных сообщений. Темный рыцарь / The Dark Knight [IMAX] (2008) BDRip-AVC

147 | 13

2.17 ГБ




Вы не можете начинать темы
Вы не можете отвечать на сообщения
Вы не можете редактировать свои сообщения
Вы не можете удалять свои сообщения
Вы не можете добавлять вложения

Перейти:  
Для Мосгорсуда, Роскомнадзора и рекламодателей: mosgorsud-torrent[собачка]yandex.ru
 Вход
ppkBB3cker v.2 © 2008-2014 @ PPK
[ Time : 0.697s | 18 Queries | GZIP : Off ]

cron