img image001 image001 image001 image001 image001 image001 image001 image001 image001 image001 image001 image001 image001 image001 image001 image001

Planets Sun Sun Sun
Статистика раздачи
Автор: Nickolas3434 | Размер: 9.06 ГБ | Добавлен: 16 апр 2014
Раздают: 41    Качают: 47
Скачать торрент
Скачать торрент
Описание торрента

СообщениеДобавлено: 16 апр 2014 

Информация о фильме
Название: Двойная жизнь Камиллы / Камилла раздваивается
Оригинальное название: Camille redouble
Год выхода: 2012
Жанр: комедия, драма
Режиссер: Ноэми Львовски
В ролях: Ноэми Львовски, Самир Гесми, Жюдит Шемла, Индия Хэйр, Жюлия Фор, Иоланда Моро, Мишель Вюйермоз, Дени Подалидес, Жан-Пьер Лео, Венсан Лакост

О фильме:
16-летняя Камилла влюбляется в симпатичного парня Эрика, который не намного старше её. Подростки страстно любят друг друга, и вскоре у них рождается дочь. Их счастливый брак длится более 20 лет, но однажды Эрик уходит от Камиллы к молодой девушке. Вскоре Камилла фантастическим образом переносится в прошлое, в те дни, когда они лишь познакомились с Эриком. Теперь у неё есть выбор: не влюбляться в Эрика, зная что, в конце концов, он её предаст, или же всё-таки попытаться построить их отношения иным образом.



Выпущено: Франция
Продолжительность: 01:55:13
Озвучивание: Профессиональное (многоголосое) [Лицензия]

Файл
Формат: MKV
Качество: BDRip 1080p [ROUGH]
Видео: 9360 kb/s, 1920x1040
Аудио: Russian: AC3, 384 kb/s (6 ch) / French: DTS, 1510 kb/s (6 ch)
Субтитры: English
Дополнительно: Сохранены оригинальные чаптеры как на Blu-Ray
Размеp 9.06 Gb
Скачать: Сэмпл

Релиз группы:



Общее
Camille.Redouble.2012.Blu.Ray.1080p.CINEMANIA.mkv
Формат : Matroska
Версия формата : Version 4 / Version 2
Размер файла : 9,06 Гбайт
Продолжительность : 1 ч. 55 м.
Общий поток : 11,3 Мбит/сек
Название фильма : Release Group CINEMANIA
Дата кодирования : UTC 2014-04-15 09:08:40
Программа кодирования : mkvmerge v6.8.0 ('Theme for Great Cities') 64bit built on Mar 2 2014 21:34:26
Библиотека кодирования : libebml v1.3.0 + libmatroska v1.4.1

Видео
Идентификатор : 1
Формат : AVC
Формат/Информация : Advanced Video Codec
Профиль формата : High@L4.0
Параметр CABAC формата : Да
Параметр ReFrames формата : 4 кадра
Идентификатор кодека : V_MPEG4/ISO/AVC
Продолжительность : 1 ч. 55 м.
Битрейт : 9360 Кбит/сек
Ширина : 1920 пикселей
Высота : 1040 пикселей
Соотношение сторон : 1,85:1
Режим частоты кадров : Постоянный
Частота кадров : 24,000 кадра/сек
Цветовое пространство : YUV
Субдискретизация насыщенности : 4:2:0
Битовая глубина : 8 бит
Тип развёртки : Прогрессивная
Бит/(Пиксели*Кадры) : 0.195
Размер потока : 7,35 Гбайт (81%)
Заголовок : Release Group CINEMANIA
Библиотека кодирования : x264 core 129 r2245 bc13772
Настройки программы : cabac=1 / ref=4 / deblock=1:0:0 / analyse=0x3:0x133 / me=umh / subme=7 / psy=1 / psy_rd=1.00:0.00 / mixed_ref=1 / me_range=16 / chroma_me=1 / trellis=1 / 8x8dct=1 / cqm=0 / deadzone=21,11 / fast_pskip=0 / chroma_qp_offset=-2 / threads=18 / lookahead_threads=3 / sliced_threads=0 / nr=0 / decimate=1 / interlaced=0 / bluray_compat=0 / constrained_intra=0 / bframes=3 / b_pyramid=2 / b_adapt=2 / b_bias=0 / direct=3 / weightb=1 / open_gop=0 / weightp=2 / keyint=250 / keyint_min=24 / scenecut=40 / intra_refresh=0 / rc_lookahead=50 / rc=2pass / mbtree=1 / bitrate=9360 / ratetol=1.0 / qcomp=0.60 / qpmin=0 / qpmax=69 / qpstep=4 / cplxblur=20.0 / qblur=0.5 / ip_ratio=1.40 / aq=1:1.00
Язык : French
Default : Да
Forced : Нет

Аудио #1
Идентификатор : 2
Формат : AC-3
Формат/Информация : Audio Coding 3
Расширение режима : CM (complete main)
Параметр Endianness формата : Big
Идентификатор кодека : A_AC3
Продолжительность : 1 ч. 55 м.
Вид битрейта : Постоянный
Битрейт : 384 Кбит/сек
Каналы : 6 каналов
Расположение каналов : Front: L C R, Side: L R, LFE
Частота : 48,0 КГц
Битовая глубина : 16 бит
Метод сжатия : С потерями
Размер потока : 316 Мбайт (3%)
Заголовок : Лицензия
Язык : Russian
Default : Да
Forced : Да

Аудио #2
Идентификатор : 3
Формат : DTS
Формат/Информация : Digital Theater Systems
Режим : 16
Параметр Endianness формата : Big
Идентификатор кодека : A_DTS
Продолжительность : 1 ч. 55 м.
Вид битрейта : Постоянный
Битрейт : 1509 Кбит/сек
Каналы : 6 каналов
Расположение каналов : Front: L C R, Side: L R, LFE
Частота : 48,0 КГц
Битовая глубина : 24 бит
Метод сжатия : С потерями
Размер потока : 1,21 Гбайт (13%)
Язык : French
Default : Нет
Forced : Нет

Текст
Идентификатор : 4
Формат : UTF-8
Идентификатор кодека : S_TEXT/UTF8
Идентификатор кодека/Информация : UTF-8 Plain Text
Язык : English
Default : Нет
Forced : Нет

Меню
00:00:00.000 : en:00:00:00.000
00:06:14.875 : en:00:06:14.875
00:14:30.083 : en:00:14:30.083
00:23:55.000 : en:00:23:55.000
00:33:41.625 : en:00:33:41.625
00:41:49.958 : en:00:41:49.958
00:53:33.000 : en:00:53:33.000
01:04:47.917 : en:01:04:47.917
01:18:41.375 : en:01:18:41.375
01:31:08.708 : en:01:31:08.708
01:43:12.167 : en:01:43:12.167
01:50:23.875 : en:01:50:23.875



   Похожие торренты   Торрент   Размер 
В этой теме нет новых непрочитанных сообщений. Двойная жизнь Камиллы / Камилла раздваивается / Camille redouble (2012) BDRip 720p от CINEMANIA | P

53 | 55

5.78 ГБ

В этой теме нет новых непрочитанных сообщений. Двойная жизнь Камиллы / Camille redouble (2012) DVD5 R5 от New-Team | P | лицензия

33 | 21

4.18 ГБ

В этой теме нет новых непрочитанных сообщений. Двойная жизнь Камиллы / Camille redouble (2012) HDRip от New-Team | лицензия

770 | 138

1.46 ГБ

В этой теме нет новых непрочитанных сообщений. Двойная жизнь Камиллы / Camille redouble (2012) HDRip-AVC от New-Team | P | лицензия

196 | 97

2.18 ГБ

В этой теме нет новых непрочитанных сообщений. Камилла Клодель / Camille Claudel (1988) BDRip 720p | P, A

21 | 6

13.53 ГБ

В этой теме нет новых непрочитанных сообщений. Камилла Клодель / Camille Claudel (1988) HDRip | P

23 | 3

2.18 ГБ

В этой теме нет новых непрочитанных сообщений. Медовый месяц Камиллы / Camille (Грегори МакКензи) [2007, фэнтези, драма, мелодрама, комедия, приключения, BDRip-AVC] DUB / Драмы

1 | 0

1.46 ГБ




Вы не можете начинать темы
Вы не можете отвечать на сообщения
Вы не можете редактировать свои сообщения
Вы не можете удалять свои сообщения
Вы не можете добавлять вложения

Перейти:  
 Вход
ppkBB3cker v.2 © 2008-2014 @ PPK
[ Time : 0.024s | 16 Queries | GZIP : Off ]

cron