img image001 image001 image001 image001 image001 image001 image001 image001 image001 image001 image001 image001 image001 image001 image001

Planets Sun Sun Sun
Статистика раздачи
Автор: Nickolas3434 | Размер: 8.54 ГБ | Добавлен: 18 апр 2014
Раздают: 330    Качают: 144
Скачать торрент
Скачать торрент
Описание торрента

СообщениеДобавлено: 18 апр 2014 

Информация о фильме
Название: Полицейская история 2013
Оригинальное название: Jing Cha Gu Shi 2013 / Police Story 2013
Год выхода: 2013
Жанр: боевик, триллер, драма, криминал
Режиссер: Дин Шэн
В ролях: Джеки Чан, Лю Е, Тянь Цзин, Бо Хуан, Юй Жун Гуан, Александр Байли, Макс Хуан, Джеймс Лоджа, Андреас Нгуйен

О фильме:
Вэнь Чжун – китайский полицейский, который уже довольно давно следит за соблюдением порядка в родном городе. Он не может похвастаться ни престижной должностью, ни солидной зарплатой, но зато может называться честным копом. Впрочем, и это достоинство за ним признает не каждый. Мяо, родная дочь Чжуна, которая почти потеряла связь с отцом и не желает его слушать, вопреки его воле состоит в отношениях с Ву, владельцем бара.

А Ву, как выясняет Чжун во время визита к дочери, и вовсе затаил на него какую-то обиду и давно пытался подобраться поближе. Именно такой вывод делает Чжун, когда приходит в себя в одном из помещений бара, чувствуя боль в затылке и понимая, что сидит перед Ву, привязанный к стулу. Ву взял заложников и теперь требует содействия от Чжуна – он хочет встречи с заключенным Веем, с которым явно имеет давние счеты. Только вот правда в том, что Ву вовсе не собирается отпускать всех находящихся в баре заложников, и на это тоже есть причины.



Выпущено: Гонконг, Китай
Продолжительность: 01:50:07
Озвучивание: Любительское (двухголосое) [GREEN TEA]

Файл
Формат: MKV
Качество: BDRip 1080p [CHD]
Видео: 9366 kb/s, 1920х816
Аудио: Russian: AC3, 224 kb/s (2 ch) / Chinese: DTS, 1510 kb/s (6 ch)
Субтитры: English
Дополнительно: Сохранены оригинальные чаптеры как на Blu-Ray
Размер: 8.54 GB
Скачать: Сэмпл

Релиз группы:




Общее
Police.Story.2013.Blu.Ray.1080p.CINEMANIA.mkv
Формат : Matroska
Версия формата : Version 4 / Version 2
Размер файла : 8,54 Гбайт
Продолжительность : 1 ч. 50 м.
Общий поток : 11,1 Мбит/сек
Название фильма : Release Group CINEMANIA
Дата кодирования : UTC 2014-04-16 19:22:03
Программа кодирования : mkvmerge v6.8.0 ('Theme for Great Cities') 64bit built on Mar 2 2014 21:34:26
Библиотека кодирования : libebml v1.3.0 + libmatroska v1.4.1

Видео
Идентификатор : 1
Формат : AVC
Формат/Информация : Advanced Video Codec
Профиль формата : High@L4.1
Параметр CABAC формата : Да
Параметр ReFrames формата : 5 кадров
Идентификатор кодека : V_MPEG4/ISO/AVC
Продолжительность : 1 ч. 50 м.
Битрейт : 9366 Кбит/сек
Ширина : 1920 пикселей
Высота : 816 пикселей
Соотношение сторон : 2,35:1
Режим частоты кадров : Постоянный
Частота кадров : 24,000 кадра/сек
Цветовое пространство : YUV
Субдискретизация насыщенности : 4:2:0
Битовая глубина : 8 бит
Тип развёртки : Прогрессивная
Бит/(Пиксели*Кадры) : 0.249
Размер потока : 7,03 Гбайт (82%)
Заголовок : Release Group CINEMANIA
Библиотека кодирования : x264 core 138 r2356 a1d3d17
Настройки программы : cabac=1 / ref=5 / deblock=1:-3:-3 / analyse=0x3:0x113 / me=umh / subme=10 / psy=1 / psy_rd=1.00:0.05 / mixed_ref=1 / me_range=32 / chroma_me=1 / trellis=2 / 8x8dct=1 / cqm=0 / deadzone=21,11 / fast_pskip=0 / chroma_qp_offset=-2 / threads=18 / lookahead_threads=1 / sliced_threads=0 / nr=0 / decimate=1 / interlaced=0 / bluray_compat=0 / constrained_intra=0 / bframes=4 / b_pyramid=2 / b_adapt=2 / b_bias=0 / direct=3 / weightb=1 / open_gop=0 / weightp=2 / keyint=250 / keyint_min=24 / scenecut=40 / intra_refresh=0 / rc=2pass / mbtree=0 / bitrate=9366 / ratetol=1.0 / qcomp=0.70 / qpmin=0 / qpmax=69 / qpstep=4 / cplxblur=20.0 / qblur=0.5 / ip_ratio=1.40 / pb_ratio=1.30 / aq=2:1.00
Язык : Chinese
Default : Да
Forced : Нет

Аудио #1
Идентификатор : 2
Формат : AC-3
Формат/Информация : Audio Coding 3
Расширение режима : CM (complete main)
Параметр Endianness формата : Big
Идентификатор кодека : A_AC3
Продолжительность : 1 ч. 50 м.
Вид битрейта : Постоянный
Битрейт : 224 Кбит/сек
Каналы : 2 канала
Расположение каналов : Front: L R
Частота : 48,0 КГц
Битовая глубина : 16 бит
Метод сжатия : С потерями
Размер потока : 176 Мбайт (2%)
Заголовок : GREENTEA
Язык : Russian
Default : Да
Forced : Да

Аудио #2
Идентификатор : 3
Формат : DTS
Формат/Информация : Digital Theater Systems
Режим : 16
Параметр Endianness формата : Big
Идентификатор кодека : A_DTS
Продолжительность : 1 ч. 50 м.
Вид битрейта : Постоянный
Битрейт : 1509 Кбит/сек
Каналы : 6 каналов
Расположение каналов : Front: L C R, Side: L R, LFE
Частота : 48,0 КГц
Битовая глубина : 24 бит
Метод сжатия : С потерями
Размер потока : 1,16 Гбайт (14%)
Язык : Chinese
Default : Нет
Forced : Нет

Текст
Идентификатор : 4
Формат : UTF-8
Идентификатор кодека : S_TEXT/UTF8
Идентификатор кодека/Информация : UTF-8 Plain Text
Язык : English
Default : Нет
Forced : Нет

Меню
00:00:00.000 : zh:
00:09:49.000 : zh:
00:19:52.000 : zh:
00:28:14.625 : zh:
00:37:56.000 : zh:
00:47:41.000 : zh:
00:56:41.000 : zh:
01:05:11.000 : zh:
01:15:06.000 : zh:
01:25:26.000 : zh:
01:34:59.000 : zh:
01:43:00.000 : zh:



   Похожие торренты   Торрент   Размер 
В этой теме нет новых непрочитанных сообщений. Полицейская история 2013 / Police Story 2013 / Jing Cha Gu Shi 2013 (2013) BDRip 720p от CINEMANIA| L2

205 | 108

6.33 ГБ

В этой теме нет новых непрочитанных сообщений. Полицейская история 2013 / Police Story 2013 / Jing cha gu shi 2013 (2013) BDRip от HQCLUB

317 | 19

2.18 ГБ

В этой теме нет новых непрочитанных сообщений. Полицейская история 2013 / Police Story 2013 / Jing cha gu shi 2013 (2013) BDRip-AVC от HELLYWOOD | A

312 | 54

2.18 ГБ

В этой теме нет новых непрочитанных сообщений. Полицейская история 2013 / Police story / Jing cha gu shi 2013 (2013) BDRip-AVC от MediaClub | L2, A

126 | 12

3.16 ГБ

В этой теме нет новых непрочитанных сообщений. Полицейская история 2013 / Police story / Jing cha gu shi 2013 (2013) BDRip-AVC от MediaClub | L2

227 | 102

2.47 ГБ

В этой теме нет новых непрочитанных сообщений. Полицейская история 2013 / Police Story 2013 / Jing cha gu shi 2013 (2013) HDRip от RG Orient Extreme | A

112 | 22

1.46 ГБ

В этой теме нет новых непрочитанных сообщений. Полицейская история 2013 / Police Story 2013 / Jing cha gu shi 2013 (2013) HDRip от RG Orient Extreme | A

63 | 9

749.76 МБ




Вы не можете начинать темы
Вы не можете отвечать на сообщения
Вы не можете редактировать свои сообщения
Вы не можете удалять свои сообщения
Вы не можете добавлять вложения

Перейти:  
Для Мосгорсуда, Роскомнадзора и рекламодателей: mosgorsud-torrent[собачка]yandex.ru
 Вход
ppkBB3cker v.2 © 2008-2014 @ PPK
[ Time : 0.062s | 19 Queries | GZIP : Off ]

cron