img image001 image001 image001 image001 image001 image001 image001 image001 image001 image001 image001 image001 image001 image001 image001 image001

Planets Sun Sun Sun
Статистика раздачи
Автор: Nickolas3434 | Размер: 4.23 ГБ | Добавлен: 29 апр 2014
Раздают: 56    Качают: 39
Скачать торрент
Скачать торрент
Описание торрента

СообщениеДобавлено: 29 апр 2014 

Информация о фильме:
Название: Дьявольский особняк
Оригинальное название: Cold Creek Manor
Год выхода: 2003
Жанр: триллер, драма, детектив
Режиссер: Майк Фиггис
В ролях: Шэрон Стоун, Деннис Куэйд, Стивен Дорфф, Джулиет Льюис, Кристен Стюарт, Дана Эскелсон, Саймон Рейнолдс, Кэтлин Дюборг, Пола Бранкати, Айдан Девайн, Уэйн Робсон, Рэй Пэйсли, Шона Блэк, Питер Аутербридж, Карен Глэйв, Дэниэл Кэш

О фильме:
Супруги Купер и Лия Тилсон годами ждали, чтобы осуществить свою заветную мечту о загородном доме. И, наконец, их чаяния сбылись; они — владельцы необычайно красивого и большого поместья «Холодный ручей».
Провинциальный покой, свежий воздух, огромный участок — идеальное место, чтобы достойно встретить старость и дожить до конца дней своих, вот только этот конец может наступить куда раньше, чем предполагалось.
Ужасное, кровавое прошлое усадьбы, о котором героев «забыли» предупредить, вторгается в их настоящее с бывшим владельцем, преступником-психопатом, вернувшимся из тюрьмы. И этот жуткий человек не остановится ни перед чем, чтобы вернуть дом себе. Вернуть любой ценой…



Выпущено: США, Канада, Великобритания
Продолжительность: 01:58:55
Перевод: Профессиональный многоголосый

Файл:
Формат: .mkv
Качество: BDRip 720p
Видео: 1280x720, 23.976 fps, ~4 576 Kbps
Аудио: AC-3, 640 Kbps, 6 channels, 48.0 KHz



General
Unique ID : 249190109019666893575323658940916740865 (0xBB7844EF92F3CEC2890EA2496974B301)
Complete name : F:FILMSD'javol'sky.Osobnjak.(2003).BDRip.720p.mkv
Format : Matroska
Format version : Version 4 / Version 2
File size : 4.23 GiB
Duration : 1h 58mn
Overall bit rate : 5 092 Kbps
Encoded date : UTC 2014-04-28 13:58:52
Writing application : mkvmerge v6.9.1 ('Blue Panther') 64bit built on Apr 18 2014 18:23:38
Writing library : libebml v1.3.0 + libmatroska v1.4.1

Video
ID : 1
Format : AVC
Format/Info : Advanced Video Codec
Format profile : High@L4.1
Format settings, CABAC : Yes
Format settings, ReFrames : 4 frames
Codec ID : V_MPEG4/ISO/AVC
Duration : 1h 58mn
Bit rate : 4 351 Kbps
Nominal bit rate : 4 576 Kbps
Width : 1 280 pixels
Height : 720 pixels
Display aspect ratio : 1.85:1
Frame rate mode : Constant
Frame rate : 23.976 fps
Color space : YUV
Chroma subsampling : 4:2:0
Bit depth : 8 bits
Scan type : Progressive
Bits/(Pixel*Frame) : 0.197
Stream size : 3.61 GiB (85%)
Writing library : x264 core 120 r2164
Encoding settings : cabac=1 / ref=4 / deblock=1:-3:-3 / analyse=0x3:0x133 / me=umh / subme=10 / psy=1 / psy_rd=0.90:0.10 / mixed_ref=1 / me_range=32 / chroma_me=1 / trellis=2 / 8x8dct=1 / cqm=0 / deadzone=21,12 / fast_pskip=0 / chroma_qp_offset=-3 / threads=12 / sliced_threads=0 / nr=1 / decimate=0 / interlaced=0 / bluray_compat=0 / constrained_intra=0 / bframes=6 / b_pyramid=2 / b_adapt=2 / b_bias=0 / direct=3 / weightb=1 / open_gop=1 / weightp=2 / keyint=230 / keyint_min=23 / scenecut=40 / intra_refresh=0 / rc_lookahead=60 / rc=abr / mbtree=1 / bitrate=4576 / ratetol=1.0 / qcomp=0.90 / qpmin=1 / qpmax=69 / qpstep=5 / vbv_maxrate=32000 / vbv_bufsize=32000 / nal_hrd=none / ip_ratio=1.40 / aq=1:0.90
Language : English
Default : Yes
Forced : No

Audio
ID : 2
Format : AC-3
Format/Info : Audio Coding 3
Mode extension : CM (complete main)
Format settings, Endianness : Big
Codec ID : A_AC3
Duration : 1h 58mn
Bit rate mode : Constant
Bit rate : 640 Kbps
Channel(s) : 6 channels
Channel positions : Front: L C R, Side: L R, LFE
Sampling rate : 48.0 KHz
Bit depth : 16 bits
Compression mode : Lossy
Delay relative to video : 42ms
Stream size : 544 MiB (13%)
Title : Профессиональный многоголосый
Language : Russian
Default : Yes
Forced : No



   Похожие торренты   Торрент   Размер 
В этой теме нет новых непрочитанных сообщений. Дьявольский особняк / Поместье Холодный ручей / Cold Creek Manor (2003) BDRip-AVC от Rulya74

141 | 33

1.45 ГБ

В этой теме нет новых непрочитанных сообщений. Дьявольский особняк / Поместье Холодный ручей / Поместье в Колд Крик / Cold Creek Manor (2003) HDRip-AVC | P

13 | 3

743.61 МБ

В этой теме нет новых непрочитанных сообщений. Дьявольский особняк / Поместье Холодный ручей / Cold Creek Manor (2003) BDRemux 1080p от NovaLan

28 | 19

26.01 ГБ

В этой теме нет новых непрочитанных сообщений. Дьявольский особняк / Cold Creek Manor (2003) BDRip-AVC от Koenig

4 | 0

2.9 ГБ

В этой теме нет новых непрочитанных сообщений. Дьявольский особняк / Cold Creek Manor (Майк Фиггис) [2003, триллер, драма, детектив, HDRip] MVO

5 | 0

1.46 ГБ

В этой теме нет новых непрочитанных сообщений. Кровавый ручей / Blood Creek (2009) BDRip 720p от k.e.n & MegaPeer | L1

12 | 0

4.37 ГБ

В этой теме нет новых непрочитанных сообщений. Точный Расчет 2: Поместье Брэссфилда / Dead Reckoning 2: Brassfield Manor CE (2015) РС

590 | 27

761.13 МБ




Вы не можете начинать темы
Вы не можете отвечать на сообщения
Вы не можете редактировать свои сообщения
Вы не можете удалять свои сообщения
Вы не можете добавлять вложения

Перейти:  
 Вход
ppkBB3cker v.2 © 2008-2014 @ PPK
[ Time : 0.038s | 19 Queries | GZIP : Off ]

cron