img image001 image001 image001 image001 image001 image001 image001 image001 image001 image001 image001 image001 image001 image001 image001 image001

Planets Sun Sun Sun
Статистика раздачи
Автор: Nickolas3434 | Размер: 3.12 ГБ | Добавлен: 30 апр 2014
Раздают: 74    Качают: 37
Скачать торрент
Скачать торрент
Описание торрента

СообщениеДобавлено: 30 апр 2014 

Команда восемь: В тылу врага / Seal Team Eight: Behind Enemy Lines (2014) BDRip-AVC | iPad | P


Название: Команда восемь: В тылу врага
Оригинальное название: Seal Team Eight: Behind Enemy Lines
Год выхода: 2014
Жанр: боевик, военный
Режиссер: Роэль Рейн
В ролях: Бонни Ли Буман, Дилан Эди, Том Сайзмор, Майкл Эверсон, Лерой Гопал, Антон Джуст, Юджин Хумбанйива, Лэнгли Кирквуд, Орели Мерьель, Дэррон Каллиган, Колин Мосс

О фильме:
Команда Восемь должна бороться далеко в Африке, на секретном урановом руднике и помешать своему опасному врагу провезти контрабандой опасное оружие за границу



Страна: США
Студия: Film Afrika Worldwide, 20th Century Fox Home Entertainment

Продолжительность: 01:37:40
Перевод: Русский профессиональный многоголосый закадровый

Файл
Кодек: H.264
Качество: BDRip-AVC [576p]
Видео: 1024x576 (16:9) at 23.976 fps, AVC at 4200 kbps
Звук:
1: АAС 2.0 140 kbps - Русский профессиональный многоголосый закадровый
2: АAС 2.0 148 kbps - Английский
Субтитры: отсутствуют

General
Complete name : C:CREATE264mod1outSeal.Team.Eight-Behin.Enemy.Lines.2014.576p.P.m4v
Format : MPEG-4
Codec ID : M4V
File size : 3.12 GiB
Duration : 1h 37mn
Overall bit rate mode : Variable
Overall bit rate : 4 579 Kbps
Movie name : Команда восемь: В тылу врага
Performer : Roel Reiné
Genre : Action & Adventure
ContentType : Short Film
Deion : Команда Восемь должна бороться далеко в Африке, на секретном урановом руднике и помешать своему опасному врагу провезти контрабандой опасное оружие за границу.
Recorded date : UTC 2014-04-15 07:00:00
Encoded date : UTC 2014-04-29 09:00:53
Tagged date : UTC 2014-04-29 19:11:04
Copyright : © 2014 Twentieth Century Fox Film Corporation. All rights reserved.
Cover : Yes
ContentRating : mpaa|R|400|

Title/Sort : Seal Team 8: Behind Enemy Lines
LongDeion : Команда Восемь должна бороться далеко в Африке, на секретном урановом руднике и помешать своему опасному врагу провезти контрабандой опасное оружие за границу.
AppleStoreCatalogID : 830433126
Vendor : Apple:vendor_id:2014-772019

Video
ID : 1
Format : AVC
Format/Info : Advanced Video Codec
Format profile : High@L4.1
Format settings, CABAC : Yes
Format settings, ReFrames : 11 frames
Codec ID : avc1
Codec ID/Info : Advanced Video Coding
Duration : 1h 37mn
Bit rate : 4 269 Kbps
Maximum bit rate : 19.9 Mbps
Width : 1 024 pixels
Height : 576 pixels
Display aspect ratio : 16:9
Frame rate mode : Constant
Frame rate : 23.976 fps
Color space : YUV
Chroma subsampling : 4:2:0
Bit depth : 8 bits
Scan type : Progressive
Bits/(Pixel*Frame) : 0.302
Stream size : 2.91 GiB (93%)
Title : Seal.Team.Eight_ Behin.Enemy.Lines.2014
Language : English
Encoded date : UTC 2014-04-29 09:00:53
Tagged date : UTC 2014-04-29 09:01:36
Matrix coefficients : BT.709

Audio #1
ID : 2
Format : AAC
Format/Info : Advanced Audio Codec
Format profile : LC
Codec ID : 40
Duration : 1h 37mn
Bit rate mode : Variable
Bit rate : 139 Kbps
Maximum bit rate : 173 Kbps
Channel(s) : 2 channels
Channel positions : Front: L R
Sampling rate : 48.0 KHz
Compression mode : Lossy
Stream size : 96.9 MiB (3%)
Title : MVO
Language : Russian
Encoded date : UTC 2014-04-29 08:52:12
Tagged date : UTC 2014-04-29 09:01:36

Audio #2
ID : 3
Format : AAC
Format/Info : Advanced Audio Codec
Format profile : LC
Codec ID : 40
Duration : 1h 37mn
Bit rate mode : Variable
Bit rate : 148 Kbps
Maximum bit rate : 180 Kbps
Channel(s) : 2 channels
Channel positions : Front: L R
Sampling rate : 48.0 KHz
Compression mode : Lossy
Stream size : 103 MiB (3%)
Title : Original
Language : English
Encoded date : UTC 2014-04-29 08:58:12
Tagged date : UTC 2014-04-29 09:01:36

Menu
ID : 4
Codec ID : text
Duration : 1h 37mn
Encoded date : UTC 2014-04-29 09:02:17
Tagged date : UTC 2014-04-29 09:02:17
Bit rate mode : CBR


Sort Name: Seal Team 8: Behind Enemy Lines
XID: Apple:vendor_id:2014-772019
Content ID: 830433126
Copyright: © 2014 Twentieth Century Fox Film Corporation. All rights reserved.
ScreenWriters: Брендан Коулз, Шэйн Кун, Роэль Рейн
Producers: Дэвид Викт, Theuns De Wet, Malcolm Scerri-Ferrante
Director: Роэль Рейн
Cast: Бонни Ли Буман, Дилан Эди, Майкл Эверсон, Лерой Гопал, Антон Джуст, Юджин Хумбанйива, Лэнгли Кирквуд, Орели Мерьель, Дэррон Каллиган, Колин Мосс
Rating: R
Long Deion: Команда Восемь должна бороться далеко в Африке, на секретном урановом руднике и помешать своему опасному врагу провезти контрабандой опасное оружие за границу.
Deion: Команда Восемь должна бороться далеко в Африке, на секретном урановом руднике и помешать своему опасному врагу провезти контрабандой опасное оружие за границу.
Release Date: 2014-04-15T07:00:00Z
Genre: Action & Adventure
Artist: Roel Reiné
Name: Команда восемь: В тылу врага

x264 [info]: frame I:1153 Avg QP:16.42 size: 94575
x264 [info]: frame P:38627 Avg QP:19.36 size: 37249
x264 [info]: frame B:100717 Avg QP:21.68 size: 15680







   Похожие торренты   Торрент   Размер 
В этой теме нет новых непрочитанных сообщений. Команда восемь: В тылу врага / Seal Team Eight: Behind Enemy Lines (2014) BDRip от Rulya74 | P

382 | 103

2.05 ГБ

В этой теме нет новых непрочитанных сообщений. Команда восемь: В тылу врага / Seal Team Eight: Behind Enemy Lines (2014) BDRip-AVC от ExKinoRay | Р

313 | 31

2.96 ГБ

В этой теме нет новых непрочитанных сообщений. Команда восемь: В тылу врага / Seal Team Eight: Behind Enemy Lines (2014) BDRip 1080p от MediaClub | НТВ

375 | 210

7.95 ГБ

В этой теме нет новых непрочитанных сообщений. Команда восемь: В тылу врага / Seal Team Eight: Behind Enemy Lines (2014) HDRip | iTunes

1906 | 867

1.37 ГБ

В этой теме нет новых непрочитанных сообщений. Команда восемь: В тылу врага / Seal Team Eight: Behind Enemy Lines (2014) BDRemux 1080p от ExKinoRay | Р

25 | 37

25.59 ГБ

В этой теме нет новых непрочитанных сообщений. В тылу врага / Behind Enemy Lines (2001) BDRip-AVC | D, P, A

34 | 10

3.29 ГБ

В этой теме нет новых непрочитанных сообщений. В тылу врага / Behind Enemy Lines (2001) BDRip-AVC | D

0 | 0

745.15 МБ




Вы не можете начинать темы
Вы не можете отвечать на сообщения
Вы не можете редактировать свои сообщения
Вы не можете удалять свои сообщения
Вы не можете добавлять вложения

Перейти:  
 Вход
ppkBB3cker v.2 © 2008-2014 @ PPK
[ Time : 0.055s | 19 Queries | GZIP : Off ]

cron