img image001 image001 image001 image001 image001 image001 image001 image001 image001 image001 image001 image001 image001 image001 image001 image001

Planets Sun Sun Sun
Статистика раздачи
Автор: Nickolas3434 | Размер: 1.45 ГБ | Добавлен: 02 май 2014
Раздают: 112    Качают: 42
Скачать торрент
Скачать торрент
Описание торрента

СообщениеДобавлено: 02 май 2014 

Город призраков / Ghost Town (2008) BDRip-AVC



Информация о фильме
Название: Город призраков
Оригинальное название: Ghost Town
Год выхода: 2008
Жанр: фэнтези, мелодрама, комедия
Режиссер: Дэвид Кепп

В ролях: Рики Жерве, Теа Леони, Кристен Уиг, Грег Киннир, Алан Рак, Аасиф Мандви, Данаи Джекезай Гурира, Деннис Албанес, Дилан Кларк Маршал, Билл Кэмпбелл...

О фильме: Дантист-человеконенавистник переживает клиническую смерть, после которой оказывается способен видеть мертвых. Особенно сильно ему досаждает призрак бизнесмена, требующий, чтобы герой помешал грядущей свадьбе своей вдовы.



Страна: США
Продолжительность: 01:42:17
Перевод: Профессиональный (двухголосый закадровый) НТВ

Файл
Кодек: x.264
Качество: BDRip-AVC
Видео: 928x528 (16:9), 23,976 fps, 1584 kbps, 0.135 bit/pixel
Звук: 48 kHz, AC3 Dolby Digital, 6 ch, ~448.00 kbps
Субтитры: Русские, Английские (отключаемые)

&

Общее
Уникальный идентификатор : 177082890916222952192728003816530519032 (0x8538EC9A0986482083BD75D4DB6E23F8)
Полное имя : D:TorrentGhost town.2008.BDRip-AVC.mkv
Формат : Matroska
Версия формата : Version 4 / Version 2
Размер файла : 1,45 Гбайт
Продолжительность : 1 ч. 42 м.
Общий поток : 2034 Кбит/сек
Название фильма : Город призраков / Ghost town (2008) BDRip-AVC rip by Rulya74
Дата кодирования : UTC 2014-05-01 15:44:11
Программа кодирования : mkvmerge v6.5.0 ('Isn't she lovely') built on Oct 20 2013 12:50:05
Библиотека кодирования : libebml v1.3.0 + libmatroska v1.4.1

Видео
Идентификатор : 1
Формат : AVC
Формат/Информация : Advanced Video Codec
Профиль формата : High@L4.1
Параметр CABAC формата : Да
Параметр ReFrames формата : 9 кадров
Идентификатор кодека : V_MPEG4/ISO/AVC
Продолжительность : 1 ч. 42 м.
Битрейт : 1584 Кбит/сек
Ширина : 928 пикселей
Высота : 528 пикселей
Соотношение сторон : 16:9
Режим частоты кадров : Постоянный
Частота кадров : 23,976 кадра/сек
Цветовое пространство : YUV
Субдискретизация насыщенности : 4:2:0
Битовая глубина : 8 бит
Тип развёртки : Прогрессивная
Бит/(Пиксели*Кадры) : 0.135
Размер потока : 1,10 Гбайт (76%)
Библиотека кодирования : x264 core 138 r2358 9e941d1
Настройки программы : cabac=1 / ref=9 / deblock=1:-1:-1 / analyse=0x3:0x113 / me=umh / subme=11 / psy=1 / psy_rd=1.02:0.08 / mixed_ref=1 / me_range=48 / chroma_me=1 / trellis=2 / 8x8dct=1 / cqm=0 / deadzone=21,11 / fast_pskip=0 / chroma_qp_offset=-3 / threads=10 / lookahead_threads=1 / sliced_threads=0 / nr=0 / decimate=1 / interlaced=0 / bluray_compat=0 / constrained_intra=0 / bframes=5 / b_pyramid=2 / b_adapt=2 / b_bias=0 / direct=1 / weightb=1 / open_gop=0 / weightp=2 / keyint=240 / keyint_min=23 / scenecut=40 / intra_refresh=0 / rc_lookahead=40 / rc=2pass / mbtree=1 / bitrate=1584 / ratetol=1.0 / qcomp=0.60 / qpmin=0 / qpmax=69 / qpstep=4 / cplxblur=20.0 / qblur=0.5 / vbv_maxrate=62500 / vbv_bufsize=78125 / nal_hrd=none / ip_ratio=1.40 / aq=1:1.00
Default : Да
Forced : Нет

Аудио
Идентификатор : 2
Формат : AC-3
Формат/Информация : Audio Coding 3
Расширение режима : CM (complete main)
Параметр Endianness формата : Big
Идентификатор кодека : A_AC3
Продолжительность : 1 ч. 42 м.
Вид битрейта : Постоянный
Битрейт : 448 Кбит/сек
Каналы : 6 каналов
Расположение каналов : Front: L C R, Side: L R, LFE
Частота : 48,0 КГц
Битовая глубина : 16 бит
Метод сжатия : С потерями
Размер потока : 328 Мбайт (22%)
Заголовок : Профессиональный (двухголосый закадровый) НТВ
Язык : Russian
Default : Да
Forced : Нет

Текст #1
Идентификатор : 3
Формат : UTF-8
Идентификатор кодека : S_TEXT/UTF8
Идентификатор кодека/Информация : UTF-8 Plain Text
Язык : Russian
Default : Да
Forced : Нет

Текст #2
Идентификатор : 4
Формат : UTF-8
Идентификатор кодека : S_TEXT/UTF8
Идентификатор кодека/Информация : UTF-8 Plain Text
Язык : English
Default : Нет
Forced : Нет

Меню
00:00:00.000 : :1. Main Titles
00:05:36.794 : :2. Burnett's Law
00:13:36.649 : :3. Rightin' Wrongs
00:21:14.398 : :4. Ghost Town
00:29:58.338 : :5. Will & Violet
00:39:35.998 : :6. Digger's Tip
00:48:01.712 : :7. The Good Doctor
00:58:17.285 : :8. Bounty
01:06:45.960 : :9. Buried Secrets
01:16:32.254 : :10. Father and Son
01:26:23.887 : :11. Drugged
01:37:43.732 : :12. Birthday Surprise




   Похожие торренты   Торрент   Размер 
В этой теме нет новых непрочитанных сообщений. Город призраков / Ghost town (2008) BDRip 1080p

219 | 114

7.76 ГБ

В этой теме нет новых непрочитанных сообщений. Город-призрак / Ghost Town (1988) BDRip | A

35 | 9

751.39 МБ

В этой теме нет новых непрочитанных сообщений. Город-призрак / Ghost Town (1988) BDRip | A

79 | 16

1.46 ГБ

В этой теме нет новых непрочитанных сообщений. Город-призрак / Ghost Town (1988) BDRip-AVC от k.e.n &MegaPeer | P, A

0 | 1

2.18 ГБ

В этой теме нет новых непрочитанных сообщений. Охота на призраков / Ghost Hound! [TV] [01-02 из 22] (2008) BDRip 720p | AniFilm

18 | 9

1.55 ГБ

В этой теме нет новых непрочитанных сообщений. Город-призрак / Ghost Town (1988) НDRip | Р

47 | 13

1.45 ГБ

В этой теме нет новых непрочитанных сообщений. Город-призрак / Ghost Town (1988) BDRemux 1080p | P, A

2 | 0

14.52 ГБ




Вы не можете начинать темы
Вы не можете отвечать на сообщения
Вы не можете редактировать свои сообщения
Вы не можете удалять свои сообщения
Вы не можете добавлять вложения

Перейти:  
 Вход
ppkBB3cker v.2 © 2008-2014 @ PPK
[ Time : 0.045s | 17 Queries | GZIP : Off ]

cron