img image001 image001 image001 image001 image001 image001 image001 image001 image001 image001 image001 image001 image001 image001 image001 image001

Planets Sun Sun Sun
Статистика раздачи
Автор: Nickolas3434 | Размер: 2.05 ГБ | Добавлен: 03 май 2014
Раздают: 27    Качают: 7
Скачать торрент
Скачать торрент
Описание торрента

СообщениеДобавлено: 03 май 2014 



Страна: США
Производство: Mirage, Spring Creek Productions
Жанр: Триллер
Год выпуска: 1993

Продолжительность: 02:01:02

Перевод: Авторский

Оригинальная аудиодорожка: Английская

Режиссер: Стивен Кловз

В ролях: Дэннис Куэйд, Мэг Райан, Гвинет Пэлтроу, Джеймс Каан, Кристофер Райделл, Джулия МакНил, Рон Кулман, Джерри Свиндолл, Барбара Элин Вудс, Джеймс Н. Харрелл, Гектор Гарсия, Бетси Брэнтли, Вик Полицоз, Ник Хэглер, Джо Стивенс

Описание: Мелкий техасский бизнесмен Арлис Суини вот уже тридцать лет живет, преследуемый одним и тем же кошмаром. В детстве он стал свидетелем жестокого убийства, совершенного его отцом Ройем: погибла целая семья, в живых осталась лишь малышка в колыбельке. А теперь случайное знакомство с симпатичной девушкой Кей Дэвис поселяет в душе Арлиса смутное чувство тревоги. И не спроста! Коварная судьба решила вновь свести уцелевших свидетелей событий той страшной ночи.



Исходник: DVD5 R1

Тип релиза: DVDRip

Контейнер: AVI

Видео: XviD, 1818 Кбит/с, 720х400
Аудио: Русский, английский (АС3, 2 ch, 192 Кбит/с)

Аудио#1: Авторский (Володарский)
Аудио#2: Авторский (Дохалов)
Аудио#3: Английский
Общее
Полное имя : D:1АААПлоть от плоти.avi
Формат : AVI
Формат/Информация : Audio Video Interleave
Профиль формата : OpenDML
Размер файла : 2,05 Гбайт
Продолжительность : 2 ч. 1 м.
Общий поток : 2420 Кбит/сек
Программа кодирования : VirtualDubMod 1.5.10.2 (build 2540/release)
Библиотека кодирования : VirtualDubMod build 2540/release

Видео
Идентификатор : 0
Формат : MPEG-4 Visual
Профиль формата : Advanced Simple@L5
Параметр BVOP формата : 2
Параметр QPel формата : Нет
Параметр GMC формата : Без точки перехода
Параметр матрицы формата : Default (MPEG)
Идентификатор кодека : XVID
Идентификатор кодека/Подсказка : XviD
Продолжительность : 2 ч. 1 м.
Битрейт : 1819 Кбит/сек
Ширина : 720 пикселей
Высота : 400 пикселей
Соотношение сторон : 16:9
Частота кадров : 23,976 кадра/сек
Цветовое пространство : YUV
Субдискретизация насыщенности : 4:2:0
Битовая глубина : 8 бит
Тип развёртки : Прогрессивная
Метод сжатия : С потерями
Бит/(Пиксели*Кадры) : 0.263
Размер потока : 1,54 Гбайт (75%)
Библиотека кодирования : XviD 1.2.1 (UTC 2008-12-04)

Аудио #1
Идентификатор : 1
Формат : AC-3
Формат/Информация : Audio Coding 3
Расширение режима : CM (complete main)
Параметр Endianness формата : Big
Идентификатор кодека : 2000
Продолжительность : 2 ч. 1 м.
Вид битрейта : Постоянный
Битрейт : 192 Кбит/сек
Каналы : 2 канала
Расположение каналов : Front: L R
Частота : 48,0 КГц
Битовая глубина : 16 бит
Метод сжатия : С потерями
Размер потока : 166 Мбайт (8%)
Выравнивание : Разделение по промежуткам
Продолжительность промежутка : 42 мс. (1,00 видеокадр)
Время предзагрузки промежутка : 500 мс.

Аудио #2
Идентификатор : 2
Формат : AC-3
Формат/Информация : Audio Coding 3
Профиль формата : Dolby Digital
Расширение режима : CM (complete main)
Параметр Endianness формата : Big
Идентификатор кодека : 2000
Продолжительность : 2 ч. 1 м.
Вид битрейта : Постоянный
Битрейт : 192 Кбит/сек
Каналы : 2 канала
Расположение каналов : Front: L R
Частота : 48,0 КГц
Битовая глубина : 16 бит
Метод сжатия : С потерями
Размер потока : 166 Мбайт (8%)
Выравнивание : Разделение по промежуткам
Продолжительность промежутка : 42 мс. (1,00 видеокадр)
Время предзагрузки промежутка : 500 мс.

Аудио #3
Идентификатор : 3
Формат : AC-3
Формат/Информация : Audio Coding 3
Расширение режима : CM (complete main)
Параметр Endianness формата : Big
Идентификатор кодека : 2000
Продолжительность : 2 ч. 1 м.
Вид битрейта : Постоянный
Битрейт : 192 Кбит/сек
Каналы : 2 канала
Расположение каналов : Front: L R
Частота : 48,0 КГц
Битовая глубина : 16 бит
Метод сжатия : С потерями
Размер потока : 166 Мбайт (8%)
Выравнивание : Разделение по промежуткам
Продолжительность промежутка : 42 мс. (1,00 видеокадр)
Время предзагрузки промежутка : 500 мс.




Релиз группа:
Автор рипа:



   Похожие торренты   Торрент   Размер 
В этой теме нет новых непрочитанных сообщений. Плоть и кости / Flesh and Bone [01x01-04 из 08] (2015) HDTVRip | NewStudio

152 | 21

5.44 ГБ

В этой теме нет новых непрочитанных сообщений. Плоть и кости / Flesh and Bone [S01] (2015) HDTVRip 720p | NewStudio

84 | 26

13.64 ГБ

В этой теме нет новых непрочитанных сообщений. Плоть и кости / Flesh and Bone [01x01 из 08] (2015) WEBRip | NewStudio

55 | 1

700 МБ

В этой теме нет новых непрочитанных сообщений. Плоть и кости / Flesh and Bone [01x01-04 из 08] (2015) HDTVRip | NewStudio

12 | 16

3.42 ГБ

В этой теме нет новых непрочитанных сообщений. Плоть и кости / Flesh and Bone [01x01 из 08] (2015) WEBRip 720p | Amedia

88 | 6

1.66 ГБ

В этой теме нет новых непрочитанных сообщений. Плоть и кости / Flesh and Bone [01x01 из 08] (2015) WEBRip от qqss44 | Amedia

122 | 7

799.78 МБ

В этой теме нет новых непрочитанных сообщений. Плоть и кости / Flesh and Bone [S01] (2015) BDRip 720p | Amedia, NewStudio

2 | 4

22.36 ГБ




Вы не можете начинать темы
Вы не можете отвечать на сообщения
Вы не можете редактировать свои сообщения
Вы не можете удалять свои сообщения
Вы не можете добавлять вложения

Перейти:  
 Вход
ppkBB3cker v.2 © 2008-2014 @ PPK
[ Time : 0.039s | 19 Queries | GZIP : Off ]

cron