img image001 image001 image001 image001 image001 image001 image001 image001 image001 image001 image001 image001 image001 image001 image001 image001

Planets Sun Sun Sun
Статистика раздачи
Автор: Nickolas3434 | Размер: 4.49 ГБ | Добавлен: 04 май 2014
Раздают: 159    Качают: 40
Скачать торрент
Скачать торрент
Описание торрента

СообщениеДобавлено: 04 май 2014 

Информация о фильме
Название: Мой друг - гей
Оригинальное название: Date and Switch
Год выпуска: 2014
Жанр: комедия
Режиссер: Кристофер Нельсон
В ролях: Николас Браун, Хантер Коуп, Дакота Джонсон, Зак Креггер, Куинн Лорд, Ник Офферман, Гэри Коул,Меган Маллалли, Дариен Провост, Дженифер Клемент

О фильме:
Два приятеля договариваются во что бы то ни стало распрощаться с девственностью до своего выпускного. Когда один из спорщиков вскоре выясняет, что его друг гомосексуалист, это придает ситуации еще больше пикантности. Времени до намеченного срока остается всё меньше, и парни начинают отчаянно метаться в поисках подходящего партнера, сталкиваясь со множеством проблем, становящихся настоящим испытанием для их дружбы.



Выпущено: США
Продолжительность: 01:31:17
Озвучивание: Любительское (одноголосое) [Марат ШайХутДинов]

Файл
Формат: MKV
Качество: BDRip 720p [ROVERS]
Видео: 5341 kb/s, 1280x544
Аудио: Russian: AC3, 192 kb/s (2 ch) / English: DTS, 1510 kb/s (6 ch)
Субтитры: English
Дополнительно: Сохранены оригинальные чаптеры как на Blu-Ray
Размер: 4.49 GB
Скачать: Сэмпл

Релиз группы:



Общее
Date.and.Switch.2014.Blu.Ray.720p.CINEMANIA.mkv
Формат : Matroska
Версия формата : Version 4 / Version 2
Размер файла : 4,49 Гбайт
Продолжительность : 1 ч. 31 м.
Общий поток : 7042 Кбит/сек
Название фильма : Release Group CINEMANIA
Дата кодирования : UTC 2014-05-03 08:41:04
Программа кодирования : mkvmerge v6.9.1 ('Blue Panther') 64bit built on Apr 18 2014 18:23:38
Библиотека кодирования : libebml v1.3.0 + libmatroska v1.4.1

Видео
Идентификатор : 1
Формат : AVC
Формат/Информация : Advanced Video Codec
Профиль формата : High@L4.1
Параметр CABAC формата : Да
Параметр ReFrames формата : 5 кадров
Идентификатор кодека : V_MPEG4/ISO/AVC
Продолжительность : 1 ч. 31 м.
Битрейт : 5341 Кбит/сек
Ширина : 1280 пикселей
Высота : 544 пикселя
Соотношение сторон : 2,35:1
Режим частоты кадров : Постоянный
Частота кадров : 23,976 кадра/сек
Цветовое пространство : YUV
Субдискретизация насыщенности : 4:2:0
Битовая глубина : 8 бит
Тип развёртки : Прогрессивная
Бит/(Пиксели*Кадры) : 0.320
Размер потока : 3,32 Гбайт (74%)
Заголовок : Release Group CINEMANIA
Библиотека кодирования : x264 core 140 r2377 1ca7bb9
Настройки программы : cabac=1 / ref=5 / deblock=1:0:0 / analyse=0x3:0x133 / me=umh / subme=7 / psy=1 / psy_rd=1.00:0.00 / mixed_ref=1 / me_range=16 / chroma_me=1 / trellis=1 / 8x8dct=1 / cqm=0 / deadzone=21,11 / fast_pskip=0 / chroma_qp_offset=-2 / threads=12 / lookahead_threads=2 / sliced_threads=0 / nr=0 / decimate=1 / interlaced=0 / bluray_compat=0 / constrained_intra=0 / bframes=3 / b_pyramid=2 / b_adapt=1 / b_bias=0 / direct=1 / weightb=1 / open_gop=0 / weightp=2 / keyint=250 / keyint_min=23 / scenecut=40 / intra_refresh=0 / rc_lookahead=40 / rc=2pass / mbtree=1 / bitrate=5341 / ratetol=1.0 / qcomp=0.60 / qpmin=0 / qpmax=69 / qpstep=4 / cplxblur=20.0 / qblur=0.5 / ip_ratio=1.40 / aq=1:1.00
Язык : English
Default : Да
Forced : Нет

Аудио #1
Идентификатор : 2
Формат : AC-3
Формат/Информация : Audio Coding 3
Расширение режима : CM (complete main)
Параметр Endianness формата : Big
Идентификатор кодека : A_AC3
Продолжительность : 1 ч. 31 м.
Вид битрейта : Постоянный
Битрейт : 192 Кбит/сек
Каналы : 2 канала
Расположение каналов : Front: L R
Частота : 44,1 КГц
Битовая глубина : 16 бит
Метод сжатия : С потерями
Размер потока : 125 Мбайт (3%)
Заголовок : Марат ШайХутДинов
Язык : Russian
Default : Да
Forced : Да

Аудио #2
Идентификатор : 3
Формат : DTS
Формат/Информация : Digital Theater Systems
Режим : 16
Параметр Endianness формата : Big
Идентификатор кодека : A_DTS
Продолжительность : 1 ч. 31 м.
Вид битрейта : Постоянный
Битрейт : 1509 Кбит/сек
Каналы : 6 каналов
Расположение каналов : Front: L C R, Side: L R, LFE
Частота : 48,0 КГц
Битовая глубина : 24 бит
Метод сжатия : С потерями
Размер потока : 985 Мбайт (21%)
Язык : English
Default : Нет
Forced : Нет

Текст
Идентификатор : 4
Формат : UTF-8
Идентификатор кодека : S_TEXT/UTF8
Идентификатор кодека/Информация : UTF-8 Plain Text
Язык : English
Default : Нет
Forced : Нет

Меню
00:00:00.000 : en:00:00:00.000
00:05:12.187 : en:00:05:12.187
00:13:51.914 : en:00:13:51.914
00:21:08.601 : en:00:21:08.601
00:28:14.693 : en:00:28:14.693
00:34:36.366 : en:00:34:36.366
00:45:35.524 : en:00:45:35.524
00:53:20.739 : en:00:53:20.739
01:01:34.983 : en:01:01:34.983
01:07:30.838 : en:01:07:30.838
01:15:43.998 : en:01:15:43.998
01:27:04.428 : en:01:27:04.428



   Похожие торренты   Торрент   Размер 
В этой теме нет новых непрочитанных сообщений. Мой друг - гей / Date and Switch (2014) BDRip 1080p от CINEMANIA | L1

89 | 22

7.06 ГБ

В этой теме нет новых непрочитанных сообщений. Мой друг – гей / Date and Switch (2014) BDRip-AVC от MediaClub | L1

205 | 34

1.69 ГБ

В этой теме нет новых непрочитанных сообщений. Мой друг – гей / Date and Switch (2014) HDRip | L1

1044 | 165

1.37 ГБ

В этой теме нет новых непрочитанных сообщений. Мой друг – гей / Date and Switch (2013) BDRip-AVC

330 | 35

1.46 ГБ

В этой теме нет новых непрочитанных сообщений. Мой друг – гей / Date and Switch (2013) BDRip-AVC | L1

136 | 13

1.46 ГБ

В этой теме нет новых непрочитанных сообщений. Мой друг – гей / Date and Switch (2014) Blu-ray Remux 1080p от MediaClub | L1

36 | 27

26.34 ГБ

В этой теме нет новых непрочитанных сообщений. Больше, чем друг / The Switch (2010) BDRip 720p | D, P

576 | 7

4.82 ГБ




Вы не можете начинать темы
Вы не можете отвечать на сообщения
Вы не можете редактировать свои сообщения
Вы не можете удалять свои сообщения
Вы не можете добавлять вложения

Перейти:  
 Вход
ppkBB3cker v.2 © 2008-2014 @ PPK
[ Time : 0.036s | 18 Queries | GZIP : Off ]

cron