img image001 image001 image001 image001 image001 image001 image001 image001 image001 image001 image001 image001 image001 image001 image001
Planets Sun Sun Sun
Статистика раздачи
Автор: PriZraK | Размер: 2.45 ГБ | Добавлен: 14 май 2014
Раздают: 65    Качают: 12
Скачать торрент
Скачать торрент
Описание торрента

СообщениеДобавлено: 14 май 2014 

Информация о фильме
Название: Третий акт / Волшебство Бэль Айл
Оригинальное название: The Magic of Belle Isle
Год выхода: 2012
Жанр: Драма, комедия
Режиссер: Роб Райнер
В ролях: Морган Фримен, Кенан Томпсон, Вирджиния Мэдсен, Эмма Фурманн, Мадлен Кэрролл, Николетт Пьерини, С.Дж. Уилсон, Эш Кристиан, Дебарго Саньял, Фред Уиллард, Джессика Хехт, Кристофер МакКанн, Кевин Поллак, Бойд Холбрук, Розмари Ховард

О фильме:
Знаменитый писатель возвращается в маленький город, в котором стал известным. Здесь он пытается раскрыть талант у одной маленькой девочки, которая еще не научилась отпускать свое воображение на волю.


Страна: США
Студия: Castle Rock Entertainment, Voltage Pictures
Продолжительность: 01:49:18
Перевод: Профессиональный двухголосый (студия Ульпаней Эльром), Любительский двухголосый (Райдо)

Файл
Кодек: MPEG-4 AVC
Качество: BDRip (AVC)
Видео: 2150 Кбит/с, 1024x552, 23.976 кадр/с
Звук:
Аудио #1: Русский (АС3, 2 ch, 192 Кбит/с) / Профессиональный двухголосый (студия Ульпаней Эльром)
Аудио #2: Русский (АС3, 6 ch, 384 Кбит/с) / Любительский двухголосый (Райдо)
Аудио #3: Английский (АС3, 6 ch, 448 Кбит/с)
Субтитры: Русские, английские, испанские

Семпл


Общее
Полное имя : Tretij.akt.2012..x264.BDRip(AVC).MediaClub.mkv
Формат : Matroska
Версия формата : Version 2
Размер файла : 2,45 Гбайт
Продолжительность : 1 ч. 49 м.
Общий поток : 3202 Кбит/сек
Дата кодирования : UTC 2014-05-11 14:26:34
Программа кодирования : mkvmerge v5.4.0 ('Piper') built on Mar 10 2012 13:34:39
Библиотека кодирования : libebml v1.2.3 + libmatroska v1.3.0

Видео
Идентификатор : 1
Формат : AVC
Формат/Информация : Advanced Video Codec
Профиль формата : High@L4.1
Параметр CABAC формата : Да
Параметр ReFrames формата : 9 кадров
Идентификатор кодека : V_MPEG4/ISO/AVC
Продолжительность : 1 ч. 49 м.
Битрейт : 2150 Кбит/сек
Ширина : 1024 пикселя
Высота : 552 пикселя
Соотношение сторон : 1,85:1
Режим частоты кадров : Постоянный
Частота кадров : 23,976 кадра/сек
Цветовое пространство : YUV
Субдискретизация насыщенности : 4:2:0
Битовая глубина : 8 бит
Тип развёртки : Прогрессивная
Бит/(Пиксели*Кадры) : 0.159
Размер потока : 1,61 Гбайт (66%)
Библиотека кодирования : x264 core 125 r2208 d9d2288
Настройки программы : cabac=1 / ref=9 / deblock=1:-3:-2 / analyse=0x3:0x133 / me=umh / subme=10 / psy=1 / psy_rd=1.00:0.20 / mixed_ref=1 / me_range=48 / chroma_me=1 / trellis=2 / 8x8dct=1 / cqm=0 / deadzone=21,11 / fast_pskip=0 / chroma_qp_offset=-3 / threads=6 / lookahead_threads=1 / sliced_threads=0 / nr=0 / decimate=0 / interlaced=0 / bluray_compat=0 / constrained_intra=0 / bframes=8 / b_pyramid=2 / b_adapt=2 / b_bias=0 / direct=3 / weightb=1 / open_gop=0 / weightp=2 / keyint=250 / keyint_min=23 / scenecut=40 / intra_refresh=0 / rc=2pass / mbtree=0 / bitrate=2150 / ratetol=1.0 / qcomp=0.60 / qpmin=0 / qpmax=69 / qpstep=4 / cplxblur=20.0 / qblur=0.5 / ip_ratio=1.40 / pb_ratio=1.30 / aq=1:1.00
Default : Да
Forced : Нет

Аудио #1
Идентификатор : 2
Формат : AC-3
Формат/Информация : Audio Coding 3
Расширение режима : CM (complete main)
Параметр Endianness формата : Big
Идентификатор кодека : A_AC3
Продолжительность : 1 ч. 49 м.
Вид битрейта : Постоянный
Битрейт : 192 Кбит/сек
Каналы : 2 канала
Расположение каналов : Front: L R
Частота : 48,0 КГц
Битовая глубина : 16 бит
Метод сжатия : С потерями
Размер потока : 150 Мбайт (6%)
Заголовок : Профессиональный двухголосый (студия Ульпаней Эльром)
Язык : Russian
Default : Да
Forced : Нет

Аудио #2
Идентификатор : 3
Формат : AC-3
Формат/Информация : Audio Coding 3
Расширение режима : CM (complete main)
Параметр Endianness формата : Big
Идентификатор кодека : A_AC3
Продолжительность : 1 ч. 49 м.
Вид битрейта : Постоянный
Битрейт : 384 Кбит/сек
Каналы : 6 каналов
Расположение каналов : Front: L C R, Side: L R, LFE
Частота : 48,0 КГц
Битовая глубина : 16 бит
Метод сжатия : С потерями
Размер потока : 300 Мбайт (12%)
Заголовок : Любительский двухголосый (Райдо)
Язык : Russian
Default : Нет
Forced : Нет

Аудио #3
Идентификатор : 4
Формат : AC-3
Формат/Информация : Audio Coding 3
Расширение режима : CM (complete main)
Параметр Endianness формата : Big
Идентификатор кодека : A_AC3
Продолжительность : 1 ч. 49 м.
Вид битрейта : Постоянный
Битрейт : 448 Кбит/сек
Каналы : 6 каналов
Расположение каналов : Front: L C R, Side: L R, LFE
Частота : 48,0 КГц
Битовая глубина : 16 бит
Метод сжатия : С потерями
Размер потока : 350 Мбайт (14%)
Язык : English
Default : Нет
Forced : Нет

Текст #1
Идентификатор : 5
Формат : UTF-8
Идентификатор кодека : S_TEXT/UTF8
Идентификатор кодека/Информация : UTF-8 Plain Text
Заголовок : [janetta]
Язык : Russian
Default : Нет
Forced : Нет

Текст #2
Идентификатор : 6
Формат : PGS
Режим смешивания : zlib
Идентификатор кодека : S_HDMV/PGS
Идентификатор кодека/Информация : The same subtitle format used on BDs/HD-DVDs
Язык : English
Default : Нет
Forced : Нет

Текст #3
Идентификатор : 7
Формат : PGS
Режим смешивания : zlib
Идентификатор кодека : S_HDMV/PGS
Идентификатор кодека/Информация : The same subtitle format used on BDs/HD-DVDs
Язык : Spanish
Default : Нет
Forced : Нет

Меню
00:00:00.000 : en:00:00:00.000
00:12:17.737 : en:00:12:17.737
00:20:21.762 : en:00:20:21.762
00:29:19.424 : en:00:29:19.424
00:40:48.321 : en:00:40:48.321
00:53:00.844 : en:00:53:00.844
01:02:15.273 : en:01:02:15.273
01:13:15.433 : en:01:13:15.433
01:20:50.095 : en:01:20:50.095
01:30:06.109 : en:01:30:06.109
01:34:18.695 : en:01:34:18.695
01:45:16.352 : en:01:45:16.352


Релиз от:



   Похожие торренты   Торрент   Размер 
В этой теме нет новых непрочитанных сообщений. Третий акт / Волшебство Бэль Айл / The Magic of Belle Isle (2012) BDRip 720p от MediaClub | P2, L2

87 | 25

6.09 ГБ

В этой теме нет новых непрочитанных сообщений. Третий акт / Волшебство Бэль Айл / The Magic of Belle Isle (2012) HDRip-AVC от ExKinoRay | L

72 | 6

2.18 ГБ

В этой теме нет новых непрочитанных сообщений. Третий акт / Волшебство Бэль Айл / The Magic of Belle Isle (2011) HDRip от Scarabey | Р

48 | 4

1.45 ГБ

В этой теме нет новых непрочитанных сообщений. Третий акт / Волшебство Бэль Айл / The Magic of Belle Isle (2011) HDRip от Scarabey | Р

20 | 4

744.36 МБ

В этой теме нет новых непрочитанных сообщений. Третий акт / The Magic of Belle Isle (2012) BDRip-AVC от leonardo 59

23 | 3

2.51 ГБ

В этой теме нет новых непрочитанных сообщений. Третий акт / The Magic of Belle Isle (2012) BDRip 720p | L

15 | 4

5.79 ГБ

В этой теме нет новых непрочитанных сообщений. Третий акт / The Magic of Belle Isle (2012) BDRip 720p от leonardo 59

16 | 2

3.39 ГБ




Вы не можете начинать темы
Вы не можете отвечать на сообщения
Вы не можете редактировать свои сообщения
Вы не можете удалять свои сообщения
Вы не можете добавлять вложения

Перейти:  
Для Мосгорсуда, Роскомнадзора и рекламодателей: mosgorsud-torrent[собачка]yandex.ru
 Вход
ppkBB3cker v.2 © 2008-2014 @ PPK
[ Time : 0.053s | 18 Queries | GZIP : Off ]

cron