img image001 image001 image001 image001 image001 image001 image001 image001 image001 image001 image001 image001 image001 image001 image001

Planets Sun Sun Sun
Статистика раздачи
Автор: PriZraK | Размер: 10.41 ГБ | Добавлен: 14 май 2014
Раздают: 27    Качают: 8
Скачать торрент
Скачать торрент
Описание торрента

СообщениеДобавлено: 14 май 2014 

Информация о фильме
Название: Тайная миссия
Оригинальное название: Secretly Greatly
Год выхода: 2013
Жанр: боевик, комедия, драма
Режиссер: Чан Чхоль Су
В ролях: Ким Су Хён, Ко Чан Сок, Пак Ки Ун, Ху Со Пак, Сон Хён Чжу, Ли Хён У, Чхве У Сик

О фильме:
Для того, чтобы объединить Корею в единое государство, правительство Северной Кореи отправляет троих лучших агентов на территорию Южной Кореи. Теперь они работают под прикрытием и живут как самые обычные люди. Лейтенант Во Рю Ван выдает себя за умственно отсталого Бонг Дон-Гу и живет в самом бедном районе Сеула. Капитан Ри Хо-Ранг играет роль музыканта по имени Ким Мин-Су. Самый юный из них — Ри Хо-Джин выдает себя за обычного школьника. Все они живут на вражеской территории, ожидая начала великой миссии, после завершения которой они наконец-то смогут вернуться домой. А пока им предстоит привыкнуть к жизни в Южной Корее и пережить не мало курьезных ситуаций...



Выпущено: Южная Корея
Продолжительность: 02:04:07
Озвучивание: Любительское (двухголосое) [Green Tea]

Файл
Формат: MKV
Качество: BDRip 1080p [CHD]
Видео: 9212 kb/s, 1920x816
Аудио: Russian: AC3, 448 kb/s (6 ch) / Korean: DTS, 1510 kb/s (6 ch)
Субтитры: Russian [ФСГ BigBoss] + (forced, на надписи), English
Дополнительно: Сохранены оригинальные чаптеры как на Blu-ray
Размер: 10.4 GB
Скачать: Сэмпл

Релиз группы:



Общее
Secretly.Greatly.2013.Blu.Ray.1080p.CINEMANIA.mkv
Формат : Matroska
Версия формата : Version 4 / Version 2
Размер файла : 10,4 Гбайт
Продолжительность : 2 ч. 13 м.
Общий поток : 11,2 Мбит/сек
Название фильма : Release Group CINEMANIA
Дата кодирования : UTC 2014-05-12 12:53:49
Программа кодирования : mkvmerge v6.9.1 ('Blue Panther') 64bit built on Apr 18 2014 18:23:38
Библиотека кодирования : libebml v1.3.0 + libmatroska v1.4.1

Видео
Идентификатор : 1
Формат : AVC
Формат/Информация : Advanced Video Codec
Профиль формата : High@L4.1
Параметр CABAC формата : Да
Параметр ReFrames формата : 5 кадров
Идентификатор кодека : V_MPEG4/ISO/AVC
Продолжительность : 2 ч. 13 м.
Битрейт : 9212 Кбит/сек
Ширина : 1920 пикселей
Высота : 816 пикселей
Соотношение сторон : 2,35:1
Режим частоты кадров : Постоянный
Частота кадров : 23,976 кадра/сек
Цветовое пространство : YUV
Субдискретизация насыщенности : 4:2:0
Битовая глубина : 8 бит
Тип развёртки : Прогрессивная
Бит/(Пиксели*Кадры) : 0.245
Размер потока : 8,38 Гбайт (80%)
Заголовок : Release Group CINEMANIA
Библиотека кодирования : x264 core 125 r2208 d9d2288
Настройки программы : cabac=1 / ref=5 / deblock=1:-3:-3 / analyse=0x3:0x113 / me=umh / subme=10 / psy=1 / psy_rd=1.00:0.05 / mixed_ref=1 / me_range=32 / chroma_me=1 / trellis=2 / 8x8dct=1 / cqm=0 / deadzone=21,11 / fast_pskip=0 / chroma_qp_offset=-2 / threads=12 / lookahead_threads=2 / sliced_threads=0 / nr=0 / decimate=1 / interlaced=0 / bluray_compat=0 / constrained_intra=0 / bframes=5 / b_pyramid=2 / b_adapt=2 / b_bias=0 / direct=3 / weightb=1 / open_gop=0 / weightp=2 / keyint=250 / keyint_min=23 / scenecut=40 / intra_refresh=0 / rc=2pass / mbtree=0 / bitrate=9212 / ratetol=1.0 / qcomp=0.70 / qpmin=0 / qpmax=69 / qpstep=4 / cplxblur=20.0 / qblur=0.5 / ip_ratio=1.40 / pb_ratio=1.30 / aq=2:0.90
Язык : English
Default : Да
Forced : Нет

Аудио #1
Идентификатор : 2
Формат : AC-3
Формат/Информация : Audio Coding 3
Расширение режима : CM (complete main)
Параметр Endianness формата : Big
Идентификатор кодека : A_AC3
Продолжительность : 2 ч. 13 м.
Вид битрейта : Постоянный
Битрейт : 448 Кбит/сек
Каналы : 6 каналов
Расположение каналов : Front: L C R, Side: L R, LFE
Частота : 48,0 КГц
Битовая глубина : 16 бит
Метод сжатия : С потерями
Размер потока : 428 Мбайт (4%)
Заголовок : Green Tea
Язык : Russian
Default : Да
Forced : Да

Аудио #2
Идентификатор : 3
Формат : DTS
Формат/Информация : Digital Theater Systems
Режим : 16
Параметр Endianness формата : Big
Идентификатор кодека : A_DTS
Продолжительность : 2 ч. 13 м.
Вид битрейта : Постоянный
Битрейт : 1509 Кбит/сек
Каналы : 6 каналов
Расположение каналов : Front: L C R, Side: L R, LFE
Частота : 48,0 КГц
Битовая глубина : 24 бит
Метод сжатия : С потерями
Размер потока : 1,41 Гбайт (14%)
Язык : Korean
Default : Нет
Forced : Нет

Текст #1
Идентификатор : 4
Формат : UTF-8
Идентификатор кодека : S_TEXT/UTF8
Идентификатор кодека/Информация : UTF-8 Plain Text
Заголовок : forced
Язык : Russian
Default : Нет
Forced : Нет

Текст #2
Идентификатор : 5
Формат : UTF-8
Идентификатор кодека : S_TEXT/UTF8
Идентификатор кодека/Информация : UTF-8 Plain Text
Заголовок : full ( ФСГ BigBoss )
Язык : Russian
Default : Нет
Forced : Нет

Текст #3
Идентификатор : 6
Формат : UTF-8
Идентификатор кодека : S_TEXT/UTF8
Идентификатор кодека/Информация : UTF-8 Plain Text
Язык : English
Default : Нет
Forced : Нет

Меню
00:00:00.000 : en:00:00:00.000
00:10:50.775 : en:00:10:50.775
00:21:33.751 : en:00:21:33.751
00:31:38.855 : en:00:31:38.855
00:44:05.852 : en:00:44:05.852
00:53:13.023 : en:00:53:13.023
01:02:32.082 : en:01:02:32.082
01:15:35.531 : en:01:15:35.531
01:26:41.071 : en:01:26:41.071
01:38:06.631 : en:01:38:06.631
01:51:17.796 : en:01:51:17.796
02:08:27.033 : en:02:08:27.033
02:10:15.766 : en:02:10:15.766



   Похожие торренты   Торрент   Размер 
В этой теме нет новых непрочитанных сообщений. Тайная миссия / Secretly Greatly (2013) BDRip 720p от CINEMANIA | L2

11 | 7

8.35 ГБ

В этой теме нет новых непрочитанных сообщений. Тайная миссия / Secretly Greatly (2013) HDRip | L2

18 | 3

1.45 ГБ

В этой теме нет новых непрочитанных сообщений. Под прикрытием / Тайная миссия / Secretly Greatly / Eunmilhage Widaehage (2013) HDRip-AVC от BTT-TEAM и SOUND-GROUP | Расширенная версия

34 | 16

2.18 ГБ

В этой теме нет новых непрочитанных сообщений. Тайная миссия / Subterfuge (1996) DVDRip

6 | 21

788.38 МБ

В этой теме нет новых непрочитанных сообщений. Тайная миссия / Subterfuge (1996) DVDRip P2, A

88 | 68

1.41 ГБ

В этой теме нет новых непрочитанных сообщений. Апокалипсис: Тайная миссия пришельцев (2009) SATRip

0 | 3

446.36 МБ

В этой теме нет новых непрочитанных сообщений. Тайная жизнь хищников / Secret Life of Predators (2013) BDRip 1080p

74 | 19

18.4 ГБ




Вы не можете начинать темы
Вы не можете отвечать на сообщения
Вы не можете редактировать свои сообщения
Вы не можете удалять свои сообщения
Вы не можете добавлять вложения

Перейти:  
Для Мосгорсуда, Роскомнадзора и рекламодателей: mosgorsud-torrent[собачка]yandex.ru
 Вход
ppkBB3cker v.2 © 2008-2014 @ PPK
[ Time : 0.042s | 19 Queries | GZIP : Off ]

cron