img image001 image001 image001 image001 image001 image001 image001 image001 image001 image001 image001 image001 image001 image001 image001

Planets Sun Sun Sun
Статистика раздачи
Автор: PriZraK | Размер: 2.65 ГБ | Добавлен: 16 май 2014
Раздают: 6    Качают: 4
Скачать торрент
Скачать торрент
Описание торрента

СообщениеДобавлено: 16 май 2014 

Информация о фильме
Название: Город тьмы
Оригинальное название: Dark City
Год выхода: 1950
Жанр: Драма, криминал, детектив, фильм-нуар
Режиссер: Уильям Дитерле
В ролях: Чарлтон Хестон, Лизабет Скотт, Вивека Линдфорс, Дин Джэггер, Дон ДеФор, Джек Уэбб, Эд Бегли, Гарри Морган, Уолтер Сэнд, Марк Кёнинг, Майк Мазурки, Фред Олдрич, Джон Бишоп, Уолтер Бурк, Хэмилтон Кэмп, Джек Кэрролл, Билл Кэртледж, Джек Чиф, Сэлли Корнер, Майк Донован
О фильме:Дэнни Хили проиграл букмекеру - теперь ему и его друзьям срочно нужны деньги. И они находят способ как их получить. Дэнни знакомится с простым парнем Артуром Винантом, которого он втягивает в карточную игру. В итоге Артур проигрывает в покер 5 000 долларов. Оказывается, что деньги были не его, и он заканчивает жизнь самоубийством. Но выясняется, что у Артура был брат, который теперь хочет отомстить каждому, кто участвовал в той злополучной игре.

Страна: США
Студия: Paramount Pictures
Продолжительность: 01:37:47
Перевод: Профессиональный многоголосый
Файл
Кодек: MPEG-4 AVC
Качество: BDRip-AVC
Видео: 3500 Кбит/с, 768x576, 23.976 кадр/с
Звук:
Аудио #1: Русский (AC3, 2 ch, 192 Кбит/с) / Профессиональный многоголосый (СТС)
Аудио #2: Английский (AC3, 1 ch, 192 Кбит/с)
Семпл
Общее
Уникальный идентификатор : 187398321994174852917097803494252311171 (0x8CFB9A9ECDB712D4B61882C888677283)
Полное имя : F:3Films FРелизыGorod.tmy.1950.x264.BDRip.AVC.MediaClub.mkv
Формат : Matroska
Версия формата : Version 4 / Version 2
Размер файла : 2,65 Гбайт
Продолжительность : 1 ч. 37 м.
Общий поток : 3886 Кбит/сек
Название фильма : -= MediaClub =- rip by Lefevr
Дата кодирования : UTC 2014-05-13 13:15:30
Программа кодирования : mkvmerge v6.6.0 ('The Edge Of The In Between') built on Dec 1 2013 17:55:00
Библиотека кодирования : libebml v1.3.0 + libmatroska v1.4.1
Видео
Идентификатор : 1
Формат : AVC
Формат/Информация : Advanced Video Codec
Профиль формата : High@L4.1
Параметр CABAC формата : Да
Параметр ReFrames формата : 9 кадров
Идентификатор кодека : V_MPEG4/ISO/AVC
Продолжительность : 1 ч. 37 м.
Битрейт : 3500 Кбит/сек
Ширина : 768 пикселей
Высота : 576 пикселей
Соотношение сторон : 4:3
Режим частоты кадров : Постоянный
Частота кадров : 23,976 кадра/сек
Цветовое пространство : YUV
Субдискретизация насыщенности : 4:2:0
Битовая глубина : 8 бит
Тип развёртки : Прогрессивная
Бит/(Пиксели*Кадры) : 0.330
Размер потока : 2,34 Гбайт (88%)
Заголовок : Gorod.tmy.1950.x264.BDRip.AVC.MediaClub
Библиотека кодирования : x264 core 142 r2409+42 04be48a tMod [8-bit@4:2:0 X86]
Настройки программы : cabac=1 / ref=9 / deblock=1:-3:-3 / analyse=0x3:0x133 / me=umh / subme=11 / psy=1 / fade_compensate=0.00 / psy_rd=1.00:0.25 / mixed_ref=1 / me_range=32 / chroma_me=1 / trellis=2 / 8x8dct=1 / cqm=0 / deadzone=21,11 / fast_pskip=0 / chroma_qp_offset=-4 / threads=6 / lookahead_threads=1 / sliced_threads=0 / nr=0 / decimate=0 / interlaced=0 / bluray_compat=0 / constrained_intra=0 / fgo=0 / bframes=8 / b_pyramid=2 / b_adapt=2 / b_bias=0 / direct=3 / weightb=1 / open_gop=0 / weightp=2 / keyint=240 / keyint_min=23 / scenecut=40 / intra_refresh=0 / rc=2pass / mbtree=0 / bitrate=3500 / ratetol=1.0 / qcomp=0.60 / qpmin=0:0:0 / qpmax=69:69:69 / qpstep=4 / cplxblur=20.0 / qblur=0.5 / ip_ratio=1.40 / pb_ratio=1.30 / aq=1:1.00 / aq-sensitivity=10.00 / aq-factor=1.00:1.00:1.00 / aq2=0 / aq3=0
Язык : English
Default : Да
Forced : Нет
Аудио #1
Идентификатор : 2
Формат : AC-3
Формат/Информация : Audio Coding 3
Профиль формата : Dolby Digital
Расширение режима : CM (complete main)
Параметр Endianness формата : Big
Идентификатор кодека : A_AC3
Продолжительность : 1 ч. 37 м.
Вид битрейта : Постоянный
Битрейт : 192 Кбит/сек
Каналы : 2 канала
Расположение каналов : Front: L R
Частота : 48,0 КГц
Битовая глубина : 16 бит
Метод сжатия : С потерями
Размер потока : 134 Мбайт (5%)
Заголовок : TRACK_01_MVO_RUS_CTC
Язык : Russian
Default : Да
Forced : Да
Аудио #2
Идентификатор : 3
Формат : AC-3
Формат/Информация : Audio Coding 3
Расширение режима : CM (complete main)
Параметр Endianness формата : Big
Идентификатор кодека : A_AC3
Продолжительность : 1 ч. 37 м.
Вид битрейта : Постоянный
Битрейт : 192 Кбит/сек
Каналы : 1 канал
Расположение каналов : Front: C
Частота : 48,0 КГц
Битовая глубина : 16 бит
Метод сжатия : С потерями
Размер потока : 134 Мбайт (5%)
Заголовок : TRACK_02_ORIGINAL_ENG
Язык : English
Default : Нет
Forced : Нет
Меню
00:00:00.000 : en:00:00:00.000
00:11:21.055 : en:00:11:21.055
00:22:59.294 : en:00:22:59.294
00:35:31.295 : en:00:35:31.295
00:49:14.743 : en:00:49:14.743
00:58:12.697 : en:00:58:12.697
01:17:49.748 : en:01:17:49.748
01:31:00.371 : en:01:31:00.371



Релиз от: | Автор рипа:



   Похожие торренты   Торрент   Размер 
В этой теме нет новых непрочитанных сообщений. Темный город / Город тьмы / Dark City [Director's Cut] (1998) BDRip от HQ-ViDEO

11 | 4

2.18 ГБ

В этой теме нет новых непрочитанных сообщений. Темный город / Город тьмы / Dark City (1998) BDRip-AVC | 60fps | Режиссерская версия

343 | 13

3.82 ГБ

В этой теме нет новых непрочитанных сообщений. Город тьмы / Темный город / Dark City (1998) BDRip | Режиссерская версия / Director's cut от HQCLUB

81 | 2

2.18 ГБ

В этой теме нет новых непрочитанных сообщений. Темный город / Dark City (1998) BDRip-AVC от MediaClub | P, A | Режиссерская версия

77 | 9

3.31 ГБ

В этой теме нет новых непрочитанных сообщений. Темный город / Dark City (1999) BDRip 1080p от MediaClub | Director's Cut | P, A

87 | 12

7.03 ГБ

В этой теме нет новых непрочитанных сообщений. Темный город / Dark City (1998) BDRip-AVC от MediaClub | P, A | Театральная версия

57 | 7

2.55 ГБ

В этой теме нет новых непрочитанных сообщений. Ночь и город / Night and the City (1950) BDRip by msltel | P

10 | 9

1.6 ГБ




Вы не можете начинать темы
Вы не можете отвечать на сообщения
Вы не можете редактировать свои сообщения
Вы не можете удалять свои сообщения
Вы не можете добавлять вложения

Перейти:  
Для Мосгорсуда, Роскомнадзора и рекламодателей: mosgorsud-torrent[собачка]yandex.ru
 Вход
ppkBB3cker v.2 © 2008-2014 @ PPK
[ Time : 0.055s | 17 Queries | GZIP : Off ]

cron