img image001 image001 image001 image001 image001 image001 image001 image001 image001 image001 image001 image001 image001 image001 image001

Planets Sun Sun Sun
Статистика раздачи
Автор: PriZraK | Размер: 4.02 ГБ | Добавлен: 21 май 2014
Раздают: 2    Качают: 2
Скачать торрент
Скачать торрент
Описание торрента

СообщениеДобавлено: 21 май 2014 

Информация о фильме
Название: Пересечение
Оригинальное название: La traversee
Год выхода: 2012
Жанр: Триллер
Режиссер: Жером Корню
В ролях: Микаэль Юн, Фанни Валетт, Жюль Вернер, Эмили Декьенн, Жан-Франсуа Вулф
О фильме:
Пока отец в отъезде его маленькая дочь, оставшаяся с матерью, бесследно исчезает. Поиски ничего не дают, раздавленный горем мужчина начинает спиваться. Так проходит два года, но он не может оправиться от трагедии и вернуться к привычной жизни. Внезапно приходит известие, что девочка жива и здорова, счастливый родитель отправляется за ней…

Страна: Франция, Люксембург, Бельгия
Студия: Artémis Productions, Belgacom, Canal+ [fr], Centre du Cinéma et de l'Audiovisuel de la Fédération Wallonie-Bruxelles
Продолжительность: 01:36:51
Перевод: Профессиональный двухголосый (НТВ+)
Файл
Кодек: MPEG-4 AVC
Качество: HDTVRip 1080p
Видео: 5500 Кбит/с, 1920x816, 25.000 кадр/с
Звук: Русский (АС3, 6 ch, 448 Кбит/с)
Семпл

Общее
Полное имя : Peresechenie.2012.x264.HDTVRip(1080p).MediaClub.mkv
Формат : Matroska
Версия формата : Version 2
Размер файла : 4,02 Гбайт
Продолжительность : 1 ч. 36 м.
Общий поток : 5947 Кбит/сек
Дата кодирования : UTC 2014-05-18 05:24:30
Программа кодирования : mkvmerge v5.4.0 ('Piper') built on Mar 10 2012 13:34:39
Библиотека кодирования : libebml v1.2.3 + libmatroska v1.3.0
Видео
Идентификатор : 1
Формат : AVC
Формат/Информация : Advanced Video Codec
Профиль формата : High@L4.1
Параметр CABAC формата : Да
Параметр ReFrames формата : 5 кадров
Идентификатор кодека : V_MPEG4/ISO/AVC
Продолжительность : 1 ч. 36 м.
Битрейт : 5500 Кбит/сек
Ширина : 1920 пикселей
Высота : 816 пикселей
Соотношение сторон : 2,35:1
Режим частоты кадров : Постоянный
Частота кадров : 25,000 кадров/сек
Цветовое пространство : YUV
Субдискретизация насыщенности : 4:2:0
Битовая глубина : 8 бит
Тип развёртки : Прогрессивная
Бит/(Пиксели*Кадры) : 0.140
Размер потока : 3,64 Гбайт (90%)
Библиотека кодирования : x264 core 125 r2208 d9d2288
Настройки программы : cabac=1 / ref=5 / deblock=1:-2:-2 / analyse=0x3:0x133 / me=umh / subme=10 / psy=1 / psy_rd=1.00:0.15 / mixed_ref=1 / me_range=32 / chroma_me=1 / trellis=2 / 8x8dct=1 / cqm=0 / deadzone=21,11 / fast_pskip=0 / chroma_qp_offset=-3 / threads=6 / lookahead_threads=1 / sliced_threads=0 / nr=0 / decimate=0 / interlaced=0 / bluray_compat=0 / constrained_intra=0 / bframes=8 / b_pyramid=2 / b_adapt=2 / b_bias=0 / direct=3 / weightb=1 / open_gop=0 / weightp=2 / keyint=250 / keyint_min=25 / scenecut=40 / intra_refresh=0 / rc=2pass / mbtree=0 / bitrate=5500 / ratetol=1.0 / qcomp=0.60 / qpmin=0 / qpmax=69 / qpstep=4 / cplxblur=20.0 / qblur=0.5 / ip_ratio=1.40 / pb_ratio=1.30 / aq=1:0.80
Default : Да
Forced : Нет
Аудио
Идентификатор : 2
Формат : AC-3
Формат/Информация : Audio Coding 3
Расширение режима : CM (complete main)
Параметр Endianness формата : Big
Идентификатор кодека : A_AC3
Продолжительность : 1 ч. 36 м.
Вид битрейта : Постоянный
Битрейт : 448 Кбит/сек
Каналы : 6 каналов
Расположение каналов : Front: L C R, Side: L R, LFE
Частота : 48,0 КГц
Битовая глубина : 16 бит
Метод сжатия : С потерями
Размер потока : 310 Мбайт (8%)
Язык : Russian
Default : Да
Forced : Нет

Релиз от:



   Похожие торренты   Торрент   Размер 
В этой теме нет новых непрочитанных сообщений. Пересечение / La traversee (2012) HDTVRip-AVC от MediaClub | P2

152 | 63

1.55 ГБ

В этой теме нет новых непрочитанных сообщений. Пересечение / La traversee (2012) HDTVRip 720p от MediaClub | P2

145 | 66

2.26 ГБ

В этой теме нет новых непрочитанных сообщений. Пересечение / La traversee (2012) DVDRip | НТВ+

204 | 37

1.4 ГБ

В этой теме нет новых непрочитанных сообщений. Ты и я / Io e te (2012) HDTVRip 1080p от MediaClub | P

17 | 5

4.92 ГБ

В этой теме нет новых непрочитанных сообщений. Всё просто (2012) HDTVRip 1080p от MediaClub

89 | 13

4.02 ГБ

В этой теме нет новых непрочитанных сообщений. Переполох на свадьбе / The Knot (2012) HDTVRip 1080p от MediaClub | P

47 | 58

3.67 ГБ

В этой теме нет новых непрочитанных сообщений. Столик в углу / The Booth at the End [S02] (2012) HDTVRip 1080p MediaClub | P

0 | 4

6.78 ГБ




Вы не можете начинать темы
Вы не можете отвечать на сообщения
Вы не можете редактировать свои сообщения
Вы не можете удалять свои сообщения
Вы не можете добавлять вложения

Перейти:  
Для Мосгорсуда, Роскомнадзора и рекламодателей: mosgorsud-torrent[собачка]yandex.ru
 Вход
ppkBB3cker v.2 © 2008-2014 @ PPK
[ Time : 0.054s | 18 Queries | GZIP : Off ]

cron