img image001 image001 image001 image001 image001 image001 image001 image001 image001 image001 image001 image001 image001 image001 image001 image001

Planets Sun Sun Sun
Статистика раздачи
Автор: Nickolas3434 | Размер: 744.9 МБ | Добавлен: 11 июн 2014
Раздают: 22    Качают: 11
Скачать торрент
Скачать торрент
Описание торрента

СообщениеДобавлено: 11 июн 2014 

Страна: США
Производство: Castle Rock Entertainment, Malpaso Productions

Жанр: триллер, драма, криминал
Год выпуска: 1997
Продолжительность: 02:01:09

Перевод: Профессиональный (многоголосый закадровый)
Оригинальная аудиодорожка: нет
Cубтитры: нет

Режиссер: Клинт Иствуд / Clint Eastwood

В ролях:
Клинт Иствуд (Luther Whitney), Джин Хэкмен (President Allen Richmond), Эд Харрис (Seth Frank), Лора Линни (Kate Whitney), Скотт Гленн (Bill Burton), Деннис Хейсбёрт (Tim Collin), Джуди Дэвис (Gloria Russell), Э. Г. Маршалл (Walter Sullivan), Мелора Хардин (Christy Sullivan), Кеннет Уэлш (Sandy Lord), Пенни Джонсон (Laura Simon), Ричард Дженкинс (Michael McCarty)...

Описание:
Лютер Уитни — гениальный вор драгоценностей. Он свое отсидел еще тридцать лет назад. С тех пор не имел никаких дел с полицией. А тут — «черт попутал». Основательно подготовившись, он забрался в роскошный особняк знаменитого филантропа Салливана и стянул женских украшений на многие-многие тысячи. Но в этот момент в спальню вошли мужчина и женщина. Женщина — Кристи, супруга Салливана, мужчина — страшно подумать — президент Соединенных Штатов Ричмонд! Уитни спрятался и наблюдал, как любовный флирт перерос в борьбу. Президент проявил склонность к садизму, а Кристи взялась за нож для резки бумаги и ранила партнера. В спальню ворвались охранники, и Кристи застрелили. К несчастью, Уитни не удалось остаться инкогнито, хотя он и сумел сбежать…






Исходник: BDRemux 1080p
Тип релиза: BDRip
Контейнер: AVI

Видео: 688x288 (2,40:1), 23,976 fps, XviD ~ 724 kbps avg, 0.152 bit/pixel
Аудио: 48 kHz, MP3 2,0, 128 kbps

Раздача от:
Общее
Полное имя : Absolutnaya.vlast.1997.BDRip-745_[New-team]_by_AVP_Studio.avi
Формат : AVI
Формат/Информация : Audio Video Interleave
Размер файла : 746 Мбайт
Продолжительность : 2 ч. 1 м.
Общий поток : 861 Кбит/сек
Программа кодирования : VirtualDubModRus 1.5.10.2 (build 2542/release)
Библиотека кодирования : VirtualDubMod build 2542/release

Видео
Идентификатор : 0
Формат : MPEG-4 Visual
Профиль формата : Advanced Simple@L5
Параметр BVOP формата : 1
Параметр QPel формата : Нет
Параметр GMC формата : Без точки перехода
Параметр матрицы формата : Выборочная
Идентификатор кодека : XVID
Идентификатор кодека/Подсказка : XviD
Продолжительность : 2 ч. 1 м.
Битрейт : 724 Кбит/сек
Ширина : 688 пикселей
Высота : 288 пикселей
Соотношение сторон : 2,40:1
Частота кадров : 23,976 кадра/сек
Цветовое пространство : YUV
Субдискретизация насыщенности : 4:2:0
Битовая глубина : 8 бит
Тип развёртки : Прогрессивная
Метод сжатия : С потерями
Бит/(Пиксели*Кадры) : 0.152
Размер потока : 627 Мбайт (84%)
Библиотека кодирования : XviD 73

Аудио
Идентификатор : 1
Формат : MPEG Audio
Версия формата : Version 1
Профиль формата : Layer 3
Идентификатор кодека : 55
Идентификатор кодека/Подсказка : MP3
Продолжительность : 2 ч. 1 м.
Вид битрейта : Постоянный
Битрейт : 128 Кбит/сек
Каналы : 2 канала
Частота : 48,0 КГц
Метод сжатия : С потерями
Размер потока : 111 Мбайт (15%)
Выравнивание : Соединение по промежуткам
Продолжительность промежутка : 42 мс. (1,00 видеокадр)
Время предзагрузки промежутка : 504 мс.
Библиотека кодирования : LAME3.99r
Настройки программы : -m s -V 4 -q 2 -lowpass 17 -b 128





   Похожие торренты   Торрент   Размер 
В этой теме нет новых непрочитанных сообщений. Абсолютная власть / Absolute Power (1997) BDRip от New-Team

198 | 17

1.46 ГБ

В этой теме нет новых непрочитанных сообщений. Абсолютная власть / Absolute Power (1997) BDRip-AVC от New-Team

48 | 6

2.18 ГБ

В этой теме нет новых непрочитанных сообщений. Абсолютная власть / Absolute Power (1997) BDRip-AVC от MediaClub | P, P2, A

93 | 17

3.77 ГБ

В этой теме нет новых непрочитанных сообщений. Абсолютная власть / Absolute Power (1997) BDRip 1080p

159 | 98

11.56 ГБ

В этой теме нет новых непрочитанных сообщений. Абсолютная власть / Absolute Power [S02] (2005) DVDRip от Scarabey | P

8 | 3

2.68 ГБ

В этой теме нет новых непрочитанных сообщений. Абсолютная власть / Imperium (2016) BDRip 720p | L

19 | 0

8.28 ГБ

В этой теме нет новых непрочитанных сообщений. Абсолютная власть / Imperium (2016) BDRip от ExKinoRay | P

23 | 0

1.47 ГБ




Вы не можете начинать темы
Вы не можете отвечать на сообщения
Вы не можете редактировать свои сообщения
Вы не можете удалять свои сообщения
Вы не можете добавлять вложения

Перейти:  
 Вход
ppkBB3cker v.2 © 2008-2014 @ PPK
[ Time : 0.033s | 19 Queries | GZIP : Off ]

cron