img image001 image001 image001 image001 image001 image001 image001 image001 image001 image001 image001 image001 image001 image001 image001 image001

Planets Sun Sun Sun
Статистика раздачи
Автор: Nickolas3434 | Размер: 5.2 ГБ | Добавлен: 11 июн 2014
Раздают: 299    Качают: 38
Скачать торрент
Скачать торрент
Описание торрента

СообщениеДобавлено: 11 июн 2014 

Информация о фильме
Название: Венера в мехах
Оригинальное название: La Venus a la fourrure / Venus in Fur
Год выхода: 2013
Жанр: драма
Режиссер: Роман Полански
В ролях: Эмманюэль Сенье, Матье Амальрик

О фильме:
Тома решил поставить отличную пьесу по роману Леопольда фон Захера-Мазоха, под названием «Венера в мехах». Из-за этого он целый день провел на прослушивании, чтоб отыскать среди кандидаток главную героиню, такую, как он её видит. Но кастигн не дал результатов и он уже собрался домой. Тут перед ним появляется Ванда и так же хочет попробовать себя на этой роли. Она олицетворяет в себе всё, что так не нравится Тома. Однако вначале он удивляется её подготовленностью, а в конце становится просто одержим ею...



Выпущено: Франция, Польша
Продолжительность: 01:35:45
Озвучивание:
Дублированное [Чистый Звук] / Авторское (одноголосое) [А.Матвеев]

Файл
Формат: MKV
Качество: BDRip 720p [WiKi]
Видео: 3846 kb/s, 1280x536
Аудио:
Russian [Дубляж]: AC3, 448 kb/s (6 ch)
Russian [А.Матвеев]: DTS, 1510 kb/s (6 ch) / AC3, 448 kb/s (6 ch)
French: DTS, 1510 kb/s (6 ch)
Субтитры: Russian [notabenoid], English
Дополнительно: Сохранены оригинальные чаптеры как на Blu-ray
Размер: 5.20 Gb
Скачать: Сэмпл

Релиз группы:




Общее
Venus.in.Fur.2013.Blu.Ray.720p.CINEMANIA.mkv
Формат : Matroska
Версия формата : Version 4 / Version 2
Размер файла : 5,20 Гбайт
Продолжительность : 1 ч. 36 м.
Общий поток : 7748 Кбит/сек
Название фильма : Release Group CINEMANIA
Дата кодирования : UTC 2014-06-07 15:49:05
Программа кодирования : mkvmerge v6.9.1 ('Blue Panther') 64bit built on Apr 18 2014 18:23:38
Библиотека кодирования : libebml v1.3.0 + libmatroska v1.4.1

Видео
Идентификатор : 1
Формат : AVC
Формат/Информация : Advanced Video Codec
Профиль формата : High@L4.1
Параметр CABAC формата : Да
Параметр ReFrames формата : 12 кадров
Идентификатор кодека : V_MPEG4/ISO/AVC
Продолжительность : 1 ч. 36 м.
Битрейт : 3846 Кбит/сек
Ширина : 1280 пикселей
Высота : 536 пикселей
Соотношение сторон : 2,40:1
Режим частоты кадров : Постоянный
Частота кадров : 23,976 кадра/сек
Цветовое пространство : YUV
Субдискретизация насыщенности : 4:2:0
Битовая глубина : 8 бит
Тип развёртки : Прогрессивная
Бит/(Пиксели*Кадры) : 0.234
Размер потока : 2,47 Гбайт (47%)
Заголовок : Release Group CINEMANIA
Библиотека кодирования : x264 core 129 r2245+704+36 8e61944 tMod+MixAQ [8-bit@4:2:0 X86_64]
Настройки программы : cabac=1 / ref=12 / deblock=1:-3:-3 / analyse=0x3:0x133 / me=umh / subme=11 / psy=1 / fade_compensate=0.00 / psy_rd=1.05:0.10 / mixed_ref=1 / me_range=32 / chroma_me=1 / trellis=2 / 8x8dct=1 / cqm=0 / deadzone=21,11 / fast_pskip=0 / chroma_qp_offset=-3 / threads=18 / lookahead_threads=3 / sliced_threads=0 / nr=0 / decimate=0 / interlaced=0 / bluray_compat=0 / constrained_intra=0 / fgo=0 / bframes=8 / b_pyramid=2 / b_adapt=2 / b_bias=0 / direct=3 / weightb=1 / open_gop=0 / weightp=2 / keyint=250 / keyint_min=23 / scenecut=40 / intra_refresh=0 / rc_lookahead=50 / rc=2pass / mbtree=1 / bitrate=3846 / ratetol=1.0 / qcomp=0.75 / qpmin=0 / qpmax=69 / qpstep=4 / cplxblur=20.0 / qblur=0.5 / ip_ratio=1.40 / aq=1 / aq-strength=0.85 / aq-sensitivity=10.00 / aq-ifactor=1.00 / aq-pfactor=1.00 / aq-bfactor=1.00 / aq2=0
Язык : French
Default : Да
Forced : Нет
Коэффициенты матрицы : BT.709

Аудио #1
Идентификатор : 2
Формат : AC-3
Формат/Информация : Audio Coding 3
Расширение режима : CM (complete main)
Параметр Endianness формата : Big
Идентификатор кодека : A_AC3
Продолжительность : 1 ч. 36 м.
Вид битрейта : Постоянный
Битрейт : 448 Кбит/сек
Каналы : 6 каналов
Расположение каналов : Front: L C R, Side: L R, LFE
Частота : 48,0 КГц
Битовая глубина : 16 бит
Метод сжатия : С потерями
Размер потока : 308 Мбайт (6%)
Заголовок : Дубляж (Чистый Звук)
Язык : Russian
Default : Да
Forced : Да

Аудио #2
Идентификатор : 3
Формат : DTS
Формат/Информация : Digital Theater Systems
Режим : 16
Параметр Endianness формата : Big
Идентификатор кодека : A_DTS
Продолжительность : 1 ч. 36 м.
Вид битрейта : Постоянный
Битрейт : 1509 Кбит/сек
Каналы : 6 каналов
Расположение каналов : Front: L C R, Side: L R, LFE
Частота : 48,0 КГц
Битовая глубина : 24 бит
Метод сжатия : С потерями
Размер потока : 1,01 Гбайт (19%)
Заголовок : А.Матвеев
Язык : Russian
Default : Нет
Forced : Нет

Аудио #3
Идентификатор : 4
Формат : AC-3
Формат/Информация : Audio Coding 3
Расширение режима : CM (complete main)
Параметр Endianness формата : Big
Идентификатор кодека : A_AC3
Продолжительность : 1 ч. 36 м.
Вид битрейта : Постоянный
Битрейт : 448 Кбит/сек
Каналы : 6 каналов
Расположение каналов : Front: L C R, Side: L R, LFE
Частота : 48,0 КГц
Битовая глубина : 16 бит
Метод сжатия : С потерями
Размер потока : 308 Мбайт (6%)
Заголовок : А.Матвеев
Язык : Russian
Default : Нет
Forced : Нет

Аудио #4
Идентификатор : 5
Формат : DTS
Формат/Информация : Digital Theater Systems
Режим : 16
Параметр Endianness формата : Big
Идентификатор кодека : A_DTS
Продолжительность : 1 ч. 36 м.
Вид битрейта : Постоянный
Битрейт : 1509 Кбит/сек
Каналы : 6 каналов
Расположение каналов : Front: L C R, Side: L R, LFE
Частота : 48,0 КГц
Битовая глубина : 16 бит
Метод сжатия : С потерями
Размер потока : 1,01 Гбайт (19%)
Язык : French
Default : Нет
Forced : Нет

Текст #1
Идентификатор : 6
Формат : UTF-8
Идентификатор кодека : S_TEXT/UTF8
Идентификатор кодека/Информация : UTF-8 Plain Text
Заголовок : notabenoid
Язык : Russian
Default : Нет
Forced : Нет

Текст #2
Идентификатор : 7
Формат : UTF-8
Идентификатор кодека : S_TEXT/UTF8
Идентификатор кодека/Информация : UTF-8 Plain Text
Язык : English
Default : Нет
Forced : Нет

Меню
00:00:00.000 : en:00:00:00.000
00:08:07.695 : en:00:08:07.695
00:16:12.221 : en:00:16:12.221
00:23:59.855 : en:00:23:59.855
00:32:19.687 : en:00:32:19.687
00:39:32.953 : en:00:39:32.953
00:46:53.602 : en:00:46:53.602
00:56:18.083 : en:00:56:18.083
01:03:42.527 : en:01:03:42.527
01:12:40.606 : en:01:12:40.606
01:19:08.535 : en:01:19:08.535
01:29:24.400 : en:01:29:24.400



   Похожие торренты   Торрент   Размер 
В этой теме нет новых непрочитанных сообщений. Венера в мехах / La Venus a la fourrure / Venus in Fur (2013) BDRip 720p от CINEMANIA | L1

193 | 130

4.9 ГБ

В этой теме нет новых непрочитанных сообщений. Венера в мехах / La Venus a la fourrure / Venus in Fur (2013) BDRip 1080p от CINEMANIA | D, A

253 | 40

9.97 ГБ

В этой теме нет новых непрочитанных сообщений. Венера в мехах / La Venus a la fourrure / Venus in Fur (2013) BDRip 1080p от CINEMANIA | L1

115 | 140

9.67 ГБ

В этой теме нет новых непрочитанных сообщений. Венера в мехах / La Venus a la fourrure / Venus in Fur (2013) BDRip 720p от Leonardo and Scarabey | А.Матвеев

69 | 13

1.91 ГБ

В этой теме нет новых непрочитанных сообщений. Венера в мехах / La Venus a la fourrure / Venus in Fur (2013) BDRip-AVC | L1

304 | 64

1.46 ГБ

В этой теме нет новых непрочитанных сообщений. Венера в мехах / La Venus a la fourrure / Venus in Fur (2014) BDRip 720p от Leonardo and Scarabey | D | Чистый звук

245 | 37

1.91 ГБ

В этой теме нет новых непрочитанных сообщений. Венера в мехах / La Venus a la fourrure / Venus in Fur (2013) HDRip от Scarabey | D | Чистый звук

295 | 43

1.39 ГБ




Вы не можете начинать темы
Вы не можете отвечать на сообщения
Вы не можете редактировать свои сообщения
Вы не можете удалять свои сообщения
Вы не можете добавлять вложения

Перейти:  
 Вход
ppkBB3cker v.2 © 2008-2014 @ PPK
[ Time : 0.042s | 16 Queries | GZIP : Off ]

cron