img image001 image001 image001 image001 image001 image001 image001 image001 image001 image001 image001 image001 image001 image001 image001

Planets Sun Sun Sun
Статистика раздачи
Автор: Nickolas3434 | Размер: 7.76 ГБ | Добавлен: 16 июн 2014
Раздают: 557    Качают: 45
Скачать торрент
Скачать торрент
Описание торрента

СообщениеДобавлено: 16 июн 2014 

Информация о фильме
Название: Росомаха: Бессмертный
Оригинальное название: The Wolverine
Год выхода: 2013
Жанр: фантастика, фэнтези, боевик, приключения
Режиссер: Джеймс Мэнголд
В ролях: Хью Джекман, Тао Окамото, Рила Фукусима, Светлана Ходченкова, Уилл Юн Ли, Харукико Яманоути, Хироюки Санада, Брайан Ти, Кен Ямамура, Фамке Янссен

О фильме:
Новая глава приключений Росомахи развернётся в Японии, где Логану предстоит выяснить, что острее — когти Росомахи или меч Серебряного Самурая.



Выпущено: США, Австралия
Студия: 20th Century Fox
Продолжительность: 02:18:14
Перевод: Дублированный (лицензия) + Оригинал

Файл
Кодек: x264
Качество: BDRip (источник: Blu-ray Disc)
Видео: 1920x798 (2,40:1), 23.976 fps, 6947 kbps
Аудио #1: AC-3, 6 ch, 448 kbps (Rus)
Аудио #2: AC-3, 6 ch, 640 kbps (Eng)
Субтитры: Русские (форсированные), Русские, Английские

Общее
Уникальный идентификатор : 215703458561489081052877572927272803804 (0xA246F999482B28EBB53E8F6464885DDC)
Полное имя : F:The.Wolverine.[Extended.Cut].2013.BDRip.1080p.Rus.Eng.mkv
Формат : Matroska
Версия формата : Version 2
Размер файла : 7,76 Гбайт
Продолжительность : 2 ч. 18 м.
Общий поток : 8032 Кбит/сек
Название фильма : Росомаха: Бессмертный / The Wolverine (2013) [Extended Cut]
Дата кодирования : UTC 2013-11-22 12:02:20
Программа кодирования : mkvmerge v5.8.0 ('No Sleep / Pillow') built on Sep 2 2012 15:37:04
Библиотека кодирования : libebml v1.2.3 + libmatroska v1.3.0
Attachment : Yes

Видео
Идентификатор : 1
Формат : AVC
Формат/Информация : Advanced Video Codec
Профиль формата : High@L4.1
Параметр CABAC формата : Да
Параметр ReFrames формата : 5 кадров
Идентификатор кодека : V_MPEG4/ISO/AVC
Продолжительность : 2 ч. 18 м.
Битрейт : 6947 Кбит/сек
Ширина : 1920 пикселей
Высота : 798 пикселей
Соотношение сторон : 2,40:1
Режим частоты кадров : Постоянный
Частота кадров : 23,976 кадра/сек
Цветовое пространство : YUV
Субдискретизация насыщенности : 4:2:0
Битовая глубина : 8 бит
Тип развёртки : Прогрессивная
Бит/(Пиксели*Кадры) : 0.189
Размер потока : 6,55 Гбайт (84%)
Заголовок : Release by N1NT3NDO
Библиотека кодирования : x264 core 140 r2377 1ca7bb9
Настройки программы : cabac=1 / ref=5 / deblock=1:-3:-3 / analyse=0x3:0x133 / me=umh / subme=11 / psy=1 / psy_rd=1.00:0.00 / mixed_ref=1 / me_range=32 / chroma_me=1 / trellis=2 / 8x8dct=1 / cqm=0 / deadzone=21,11 / fast_pskip=0 / chroma_qp_offset=-2 / threads=12 / lookahead_threads=1 / sliced_threads=0 / nr=0 / decimate=0 / interlaced=0 / bluray_compat=0 / constrained_intra=0 / bframes=6 / b_pyramid=2 / b_adapt=2 / b_bias=0 / direct=3 / weightb=1 / open_gop=0 / weightp=2 / keyint=240 / keyint_min=23 / scenecut=40 / intra_refresh=0 / rc=2pass / mbtree=0 / bitrate=6947 / ratetol=1.0 / qcomp=0.60 / qpmin=0 / qpmax=69 / qpstep=4 / cplxblur=20.0 / qblur=0.5 / ip_ratio=1.40 / pb_ratio=1.30 / aq=1:1.00
Язык : English
Default : Да
Forced : Нет

Аудио #1
Идентификатор : 2
Формат : AC-3
Формат/Информация : Audio Coding 3
Расширение режима : CM (complete main)
Параметр Endianness формата : Big
Идентификатор кодека : A_AC3
Продолжительность : 2 ч. 18 м.
Вид битрейта : Постоянный
Битрейт : 448 Кбит/сек
Каналы : 6 каналов
Расположение каналов : Front: L C R, Side: L R, LFE
Частота : 48,0 КГц
Битовая глубина : 16 бит
Метод сжатия : С потерями
Размер потока : 443 Мбайт (6%)
Заголовок : Rus
Язык : Russian
Default : Да
Forced : Нет

Аудио #2
Идентификатор : 3
Формат : AC-3
Формат/Информация : Audio Coding 3
Расширение режима : CM (complete main)
Параметр Endianness формата : Big
Идентификатор кодека : A_AC3
Продолжительность : 2 ч. 18 м.
Вид битрейта : Постоянный
Битрейт : 640 Кбит/сек
Каналы : 6 каналов
Расположение каналов : Front: L C R, Side: L R, LFE
Частота : 48,0 КГц
Битовая глубина : 16 бит
Метод сжатия : С потерями
Размер потока : 633 Мбайт (8%)
Заголовок : Eng
Язык : English
Default : Нет
Forced : Нет

Текст #1
Идентификатор : 4
Формат : UTF-8
Идентификатор кодека : S_TEXT/UTF8
Идентификатор кодека/Информация : UTF-8 Plain Text
Заголовок : Rus (Forced)
Язык : Russian
Default : Да
Forced : Нет

Текст #2
Идентификатор : 5
Формат : UTF-8
Идентификатор кодека : S_TEXT/UTF8
Идентификатор кодека/Информация : UTF-8 Plain Text
Заголовок : Rus
Язык : Russian
Default : Нет
Forced : Нет

Текст #3
Идентификатор : 6
Формат : UTF-8
Идентификатор кодека : S_TEXT/UTF8
Идентификатор кодека/Информация : UTF-8 Plain Text
Заголовок : Eng
Язык : English
Default : Нет
Forced : Нет

Меню
00:00:00.000 : en:00:00:00.000
00:05:03.720 : en:00:05:03.720
00:07:39.793 : en:00:07:39.793
00:08:40.562 : en:00:08:40.562
00:10:24.374 : en:00:10:24.374
00:13:55.668 : en:00:13:55.668
00:16:48.174 : en:00:16:48.174
00:20:32.648 : en:00:20:32.648
00:23:36.498 : en:00:23:36.498
00:29:13.585 : en:00:29:13.585
00:33:42.771 : en:00:33:42.771
00:35:14.779 : en:00:35:14.779
00:38:36.522 : en:00:38:36.522
00:43:04.957 : en:00:43:04.957
00:47:55.080 : en:00:47:55.080
00:49:31.844 : en:00:49:31.844
00:52:23.098 : en:00:52:23.098
00:59:32.318 : en:00:59:32.318
01:01:31.354 : en:01:01:31.354
01:07:00.516 : en:01:07:00.516
01:13:10.261 : en:01:13:10.261
01:18:52.227 : en:01:18:52.227
01:23:40.473 : en:01:23:40.473
01:26:47.160 : en:01:26:47.160
01:29:50.927 : en:01:29:50.927
01:35:19.380 : en:01:35:19.380
01:38:28.194 : en:01:38:28.194
01:41:43.639 : en:01:41:43.639
01:48:33.006 : en:01:48:33.006
01:52:05.969 : en:01:52:05.969
01:54:56.264 : en:01:54:56.264
01:58:03.493 : en:01:58:03.493
02:03:01.999 : en:02:03:01.999
02:04:57.406 : en:02:04:57.406
02:07:46.700 : en:02:07:46.700
02:09:17.374 : en:02:09:17.374
x264 [info]: frame I:1764 Avg QP:14.41 size:189014
x264 [info]: frame P:56893 Avg QP:17.63 size: 64571
x264 [info]: frame B:140211 Avg QP:18.81 size: 22755
x264 [info]: consecutive B-frames: 6.6% 6.9% 15.7% 23.1% 18.4% 24.4% 4.9%



   Похожие торренты   Торрент   Размер 
В этой теме нет новых непрочитанных сообщений. Росомаха: Бессмертный / The Wolverine (2013) BDRip-HEVC 1080p от FREEISLAND | Extended Cut

174 | 40

3.91 ГБ

В этой теме нет новых непрочитанных сообщений. Росомаха: Бессмертный / The Wolverine (2013) BDRip 1080p от Conchita Wurst | D, A | Extended Cut

39 | 47

28.16 ГБ

В этой теме нет новых непрочитанных сообщений. Росомаха: Бессмертный / The Wolverine (2013) BDRip от -=HD-NET=- | КПК | Extended Cut | Лицензия

30 | 10

451.16 МБ

В этой теме нет новых непрочитанных сообщений. Росомаха: Бессмертный / The Wolverine (2013) BDRip 720p от Conchita Wurst | D, A | Extended Cut

57 | 33

19.85 ГБ

В этой теме нет новых непрочитанных сообщений. Росомаха: Бессмертный / The Wolverine (2013) | Extended Cut | HDRip от Assassin's Creed | КПК

57 | 5

1.17 ГБ

В этой теме нет новых непрочитанных сообщений. Росомаха: Бессмертный / The Wolverine (2013) BDRip 1080p | Theatrical Cut

222 | 52

7.76 ГБ

В этой теме нет новых непрочитанных сообщений. Росомаха: Бессмертный / The Wolverine (2013) HD 1080p | Трейлер

7 | 4

99.27 МБ




Вы не можете начинать темы
Вы не можете отвечать на сообщения
Вы не можете редактировать свои сообщения
Вы не можете удалять свои сообщения
Вы не можете добавлять вложения

Перейти:  
Для Мосгорсуда, Роскомнадзора и рекламодателей: mosgorsud-torrent[собачка]yandex.ru
 Вход
ppkBB3cker v.2 © 2008-2014 @ PPK
[ Time : 0.055s | 20 Queries | GZIP : Off ]

cron