img image001 image001 image001 image001 image001 image001 image001 image001 image001 image001 image001 image001 image001 image001 image001

Planets Sun Sun Sun
Статистика раздачи
Автор: Nickolas3434 | Размер: 7.76 ГБ | Добавлен: 16 июн 2014
Раздают: 222    Качают: 52
Скачать торрент
Скачать торрент
Описание торрента

СообщениеДобавлено: 16 июн 2014 

Информация о фильме
Название: Росомаха: Бессмертный
Оригинальное название: The Wolverine
Год выхода: 2013
Жанр: фантастика, фэнтези, боевик, приключения
Режиссер: Джеймс Мэнголд
В ролях: Хью Джекман, Тао Окамото, Рила Фукусима, Светлана Ходченкова, Уилл Юн Ли, Харукико Яманоути, Хироюки Санада, Брайан Ти, Кен Ямамура, Фамке Янссен

О фильме:
Новая глава приключений Росомахи развернётся в Японии, где Логану предстоит выяснить, что острее — когти Росомахи или меч Серебряного Самурая.



Выпущено: США, Австралия
Студия: 20th Century Fox
Продолжительность: 02:06:08
Перевод: Дублированный (лицензия) + Оригинал

Файл
Кодек: x264
Качество: BDRip (источник: Blu-ray Disc)
Видео: 1920x798 (2,40:1), 23.976 fps, 7717 kbps
Аудио #1: AC-3, 6 ch, 448 kbps (Rus)
Аудио #2: AC-3, 6 ch, 640 kbps (Eng)
Субтитры: Русские (форсированные), Русские, Английские

Общее
Уникальный идентификатор : 196388565996009051947209916290839102162 (0x93BF0FDF258D781B9CD8397935D442D2)
Полное имя : F:The.Wolverine.[Theatrical.Cut].2013.BDRip.1080p.Rus.Eng.mkv
Формат : Matroska
Версия формата : Version 2
Размер файла : 7,76 Гбайт
Продолжительность : 2 ч. 6 м.
Общий поток : 8802 Кбит/сек
Название фильма : Росомаха: Бессмертный / The Wolverine (2013) [Theatrical Cut]
Дата кодирования : UTC 2013-11-20 14:06:06
Программа кодирования : mkvmerge v5.8.0 ('No Sleep / Pillow') built on Sep 2 2012 15:37:04
Библиотека кодирования : libebml v1.2.3 + libmatroska v1.3.0
Attachment : Yes

Видео
Идентификатор : 1
Формат : AVC
Формат/Информация : Advanced Video Codec
Профиль формата : High@L4.1
Параметр CABAC формата : Да
Параметр ReFrames формата : 5 кадров
Идентификатор кодека : V_MPEG4/ISO/AVC
Продолжительность : 2 ч. 6 м.
Битрейт : 7717 Кбит/сек
Ширина : 1920 пикселей
Высота : 798 пикселей
Соотношение сторон : 2,40:1
Режим частоты кадров : Постоянный
Частота кадров : 23,976 кадра/сек
Цветовое пространство : YUV
Субдискретизация насыщенности : 4:2:0
Битовая глубина : 8 бит
Тип развёртки : Прогрессивная
Бит/(Пиксели*Кадры) : 0.210
Размер потока : 6,64 Гбайт (86%)
Заголовок : Release by N1NT3NDO
Библиотека кодирования : x264 core 140 r2377 1ca7bb9
Настройки программы : cabac=1 / ref=5 / deblock=1:-3:-3 / analyse=0x3:0x133 / me=umh / subme=11 / psy=1 / psy_rd=1.00:0.00 / mixed_ref=1 / me_range=32 / chroma_me=1 / trellis=2 / 8x8dct=1 / cqm=0 / deadzone=21,11 / fast_pskip=0 / chroma_qp_offset=-2 / threads=12 / lookahead_threads=1 / sliced_threads=0 / nr=0 / decimate=0 / interlaced=0 / bluray_compat=0 / constrained_intra=0 / bframes=6 / b_pyramid=2 / b_adapt=2 / b_bias=0 / direct=3 / weightb=1 / open_gop=0 / weightp=2 / keyint=240 / keyint_min=23 / scenecut=40 / intra_refresh=0 / rc=2pass / mbtree=0 / bitrate=7717 / ratetol=1.0 / qcomp=0.60 / qpmin=0 / qpmax=69 / qpstep=4 / cplxblur=20.0 / qblur=0.5 / ip_ratio=1.40 / pb_ratio=1.30 / aq=1:1.00
Язык : English
Default : Да
Forced : Нет

Аудио #1
Идентификатор : 2
Формат : AC-3
Формат/Информация : Audio Coding 3
Расширение режима : CM (complete main)
Параметр Endianness формата : Big
Идентификатор кодека : A_AC3
Продолжительность : 2 ч. 6 м.
Вид битрейта : Постоянный
Битрейт : 448 Кбит/сек
Каналы : 6 каналов
Расположение каналов : Front: L C R, Side: L R, LFE
Частота : 48,0 КГц
Битовая глубина : 16 бит
Метод сжатия : С потерями
Размер потока : 404 Мбайт (5%)
Заголовок : Rus
Язык : Russian
Default : Да
Forced : Нет

Аудио #2
Идентификатор : 3
Формат : AC-3
Формат/Информация : Audio Coding 3
Расширение режима : CM (complete main)
Параметр Endianness формата : Big
Идентификатор кодека : A_AC3
Продолжительность : 2 ч. 6 м.
Вид битрейта : Постоянный
Битрейт : 640 Кбит/сек
Каналы : 6 каналов
Расположение каналов : Front: L C R, Side: L R, LFE
Частота : 48,0 КГц
Битовая глубина : 16 бит
Метод сжатия : С потерями
Размер потока : 577 Мбайт (7%)
Заголовок : Eng
Язык : English
Default : Нет
Forced : Нет

Текст #1
Идентификатор : 4
Формат : UTF-8
Идентификатор кодека : S_TEXT/UTF8
Идентификатор кодека/Информация : UTF-8 Plain Text
Заголовок : Rus (Forced)
Язык : Russian
Default : Да
Forced : Нет

Текст #2
Идентификатор : 5
Формат : UTF-8
Идентификатор кодека : S_TEXT/UTF8
Идентификатор кодека/Информация : UTF-8 Plain Text
Заголовок : Rus
Язык : Russian
Default : Нет
Forced : Нет

Текст #3
Идентификатор : 6
Формат : UTF-8
Идентификатор кодека : S_TEXT/UTF8
Идентификатор кодека/Информация : UTF-8 Plain Text
Заголовок : Eng
Язык : English
Default : Нет
Forced : Нет

Меню
00:00:00.000 : en:1
00:05:06.000 : en:2
00:07:40.000 : en:3
00:08:41.000 : en:4
00:10:26.000 : en:5
00:13:57.000 : en:6
00:16:50.000 : en:7
00:19:14.000 : en:8
00:22:04.000 : en:9
00:26:39.000 : en:10
00:28:54.000 : en:11
00:30:22.000 : en:12
00:33:44.000 : en:13
00:38:09.000 : en:14
00:42:43.000 : en:15
00:44:20.000 : en:16
00:47:07.000 : en:17
00:52:39.000 : en:18
00:54:38.000 : en:19
01:00:07.000 : en:20
01:06:17.000 : en:21
01:11:38.000 : en:22
01:16:26.000 : en:23
01:19:31.000 : en:24
01:22:35.000 : en:25
01:27:34.000 : en:26
01:30:38.000 : en:27
01:33:01.000 : en:28
01:36:34.000 : en:29
01:40:15.000 : en:30
01:43:05.000 : en:31
01:46:06.000 : en:32
01:51:07.000 : en:33
01:53:02.000 : en:34
01:55:50.000 : en:35
01:57:22.000 : en:36
x264 [info]: frame I:1603 Avg QP:14.18 size:210262
x264 [info]: frame P:50082 Avg QP:17.36 size: 71410
x264 [info]: frame B:129779 Avg QP:18.50 size: 26057
x264 [info]: consecutive B-frames: 6.6% 6.7% 12.4% 19.0% 17.7% 31.1% 6.4%



   Похожие торренты   Торрент   Размер 
В этой теме нет новых непрочитанных сообщений. Росомаха: Бессмертный / The Wolverine (2013) BDRip 1080p | Extended Cut

557 | 45

7.76 ГБ

В этой теме нет новых непрочитанных сообщений. Росомаха: Бессмертный / The Wolverine (2013) BDRip 1080p от Conchita Wurst | D, A | Extended Cut

39 | 47

28.16 ГБ

В этой теме нет новых непрочитанных сообщений. Росомаха: Бессмертный / The Wolverine (2013) BDRip-HEVC 1080p от FREEISLAND | Extended Cut

174 | 40

3.91 ГБ

В этой теме нет новых непрочитанных сообщений. Росомаха: Бессмертный / The Wolverine (2013) HD 1080p | Трейлер

7 | 4

99.27 МБ

В этой теме нет новых непрочитанных сообщений. Росомаха: Бессмертный / The Wolverine (2013) BDRip от -=HD-NET=- | КПК | Extended Cut | Лицензия

30 | 10

451.16 МБ

В этой теме нет новых непрочитанных сообщений. Росомаха: Бессмертный / The Wolverine (2013) BDRip-720p | Дополнительные материалы

160 | 11

2.13 ГБ

В этой теме нет новых непрочитанных сообщений. Росомаха: Бессмертный / The Wolverine (2013) BDRip 720p от Conchita Wurst | D, A | Extended Cut

57 | 33

19.85 ГБ




Вы не можете начинать темы
Вы не можете отвечать на сообщения
Вы не можете редактировать свои сообщения
Вы не можете удалять свои сообщения
Вы не можете добавлять вложения

Перейти:  
Для Мосгорсуда, Роскомнадзора и рекламодателей: mosgorsud-torrent[собачка]yandex.ru
 Вход
ppkBB3cker v.2 © 2008-2014 @ PPK
[ Time : 0.040s | 19 Queries | GZIP : Off ]

cron