img image001 image001 image001 image001 image001 image001 image001 image001 image001 image001 image001 image001 image001 image001 image001 image001

Planets Sun Sun Sun
Статистика раздачи
Автор: Nickolas3434 | Размер: 24.85 ГБ | Добавлен: 18 июн 2014
Раздают: 30    Качают: 22
Скачать торрент
Скачать торрент
Описание торрента

СообщениеДобавлено: 18 июн 2014 

Разомкнутый круг / Разорванный круг / The Broken Circle Breakdown / Alabama Monroe

Год выпуска: 2012
Страна: Бельгия, Нидерланды
Жанр: драма, мелодрама, музыка
Продолжительность: 01:51:36
Озвучивание: Профессиональное (многоголосое) + Любительское (одноголосое)
Студия: Menuet Producties, Topkapi Films
Режиссёр: Феликс ван Грунинген

В ролях: Йохан Хелденберг, Верле Батенс, Нелл Каттриссе, Герт Ван Рампелберг, Нилс Де Кастер, Робби Клейрен, Берт Хейсентрейт, Ян Бейвут, Софи Сенте, Рут Бекманс

О фильме: Дидье играет в группе на банджо, живет в трейлере в бельгийской деревне и боготворит Америку как «землю свободы». Элис — владеет тату-салоном. Однажды они влюбляются с первого взгляда.



Исходник: The Broken Circle Breakdown 2012 1080p NED Blu-ray AVC DTS-HD MA 5.1
Качество: BDRemux 1080p
Формат: MKV
Видео: MPEG-4 AVC / 26953 kb/s / 1920x1080
Аудио #1: Russian / AC3 / 384 kb/s (6 ch) - MVO R5
Аудио #2: Russian / AC3 / 448 kb/s (6 ch) - VO Andi
Аудио #3: Ukrainian / AC3 / 448 kb/s (6 ch) - MVO Цікава ідея
Аудио #4: Dutch / DTS-HD MA / 3641 kb/s (6 ch) - Original
Субтитры: Russian, Dutch, English, French, Greek, Italian, Romanian, Serbian, Turkish
Дополнительно: Сохранены оригинальные чаптеры как на Blu-ray
Скачать: Sample


General
Unique ID : 227310887937203785275773813635461298676 (0xAB027C0D321CDB43B707C16EDC1239F4)
Complete name : Z:The Broken Circle Breakdown (Alabama Monroe) 2012 Dutch Transfer HDR BDRemux 1080p.mkv
Format : Matroska
Format version : Version 4 / Version 2
File size : 24.9 GiB
Duration : 1h 51mn
Overall bit rate mode : Variable
Overall bit rate : 31.9 Mbps
Movie name : The Broken Circle Breakdown (Alabama Monroe) 2012 Dutch Transfer HDR BDRemux 1080p
Encoded date : UTC 2014-06-17 05:20:16
Writing application : mkvmerge v7.0.0 ('Where We Going') 64bit built on Jun 9 2014 15:16:27
Writing library : libebml v1.3.0 + libmatroska v1.4.1
_STATISTICS_WRITING_APP : mkvmerge v7.0.0 ('Where We Going') 64bit built on Jun 9 2014 15:16:27
_STATISTICS_WRITING_DATE_UTC : 2014-06-17 05:20:16
_STATISTICS_TAGS : BPS DURATION NUMBER_OF_FRAMES NUMBER_OF_BYTES
DURATION : 01:51:35.875000000
NUMBER_OF_FRAMES : 160701
NUMBER_OF_BYTES : 22558142525
Attachment : Yes
Video #1
ID : 1
Format : AVC
Format/Info : Advanced Video Codec
Format profile : High@L4.1
Format settings, CABAC : Yes
Format settings, ReFrames : 4 frames
Codec ID : V_MPEG4/ISO/AVC
Duration : 1h 51mn
Bit rate mode : Variable
Maximum bit rate : 36.0 Mbps
Width : 1 920 pixels
Height : 1 080 pixels
Display aspect ratio : 16:9
Frame rate mode : Constant
Frame rate : 24.000 fps
Standard : NTSC
Color space : YUV
Chroma subsampling : 4:2:0
Bit depth : 8 bits
Scan type : Progressive
Title : The Broken Circle Breakdown (Alabama Monroe) 2012 Dutch Transfer HDR BDRemux 1080p
Language : Dutch
Default : Yes
Forced : No
Color primaries : BT.709
Transfer characteristics : BT.709
Matrix coefficients : BT.709
Audio #2
ID : 2
Format : AC-3
Format/Info : Audio Coding 3
Mode extension : CM (complete main)
Format settings, Endianness : Big
Codec ID : A_AC3
Duration : 1h 51mn
Bit rate mode : Constant
Bit rate : 384 Kbps
Channel count : 6 channels
Channel positions : Front: L C R, Side: L R, LFE
Sampling rate : 48.0 KHz
Bit depth : 16 bits
Compression mode : Lossy
Stream size : 307 MiB (1%)
Title : ➨ MVO R5
Language : Russian
Default : Yes
Forced : No
Audio #3
ID : 3
Format : AC-3
Format/Info : Audio Coding 3
Mode extension : CM (complete main)
Format settings, Endianness : Big
Codec ID : A_AC3
Duration : 1h 51mn
Bit rate mode : Constant
Bit rate : 448 Kbps
Channel count : 6 channels
Channel positions : Front: L C R, Side: L R, LFE
Sampling rate : 48.0 KHz
Bit depth : 16 bits
Compression mode : Lossy
Stream size : 358 MiB (1%)
Title : ➨ VO Andi
Language : Russian
Default : No
Forced : No
Audio #4
ID : 4
Format : AC-3
Format/Info : Audio Coding 3
Mode extension : CM (complete main)
Format settings, Endianness : Big
Codec ID : A_AC3
Duration : 1h 51mn
Bit rate mode : Constant
Bit rate : 448 Kbps
Channel count : 6 channels
Channel positions : Front: L C R, Side: L R, LFE
Sampling rate : 48.0 KHz
Bit depth : 16 bits
Compression mode : Lossy
Stream size : 358 MiB (1%)
Title : ➨ MVO Цікава ідея
Language : Ukrainian
Default : No
Forced : No
Audio #5
ID : 5
Format : DTS
Format/Info : Digital Theater Systems
Format profile : MA / Core
Mode : 16
Format settings, Endianness : Big
Codec ID : A_DTS
Duration : 1h 51mn
Bit rate mode : Variable
Bit rate : Unknown / 1 509 Kbps
Channel count : 6 channels
Channel positions : Front: L C R, Side: L R, LFE
Sampling rate : 48.0 KHz
Bit depth : 24 bits
Compression mode : Lossless / Lossy
Title : ➨ Original
Language : Dutch
Default : No
Forced : No
Text #6
ID : 6
Format : UTF-8
Codec ID : S_TEXT/UTF8
Codec ID/Info : UTF-8 Plain Text
Title : ➨ Full creo140
Language : Russian
Default : No
Forced : No
Text #7
ID : 7
Format : UTF-8
Codec ID : S_TEXT/UTF8
Codec ID/Info : UTF-8 Plain Text
Title : ➨ Full
Language : Dutch
Default : No
Forced : No
Text #8
ID : 8
Format : UTF-8
Codec ID : S_TEXT/UTF8
Codec ID/Info : UTF-8 Plain Text
Title : ➨ Full
Language : English
Default : No
Forced : No
Text #9
ID : 9
Format : UTF-8
Codec ID : S_TEXT/UTF8
Codec ID/Info : UTF-8 Plain Text
Title : ➨ Full
Language : French
Default : No
Forced : No
Text #10
ID : 10
Format : UTF-8
Codec ID : S_TEXT/UTF8
Codec ID/Info : UTF-8 Plain Text
Title : ➨ Full
Language : Greek
Default : No
Forced : No
Text #11
ID : 11
Format : UTF-8
Codec ID : S_TEXT/UTF8
Codec ID/Info : UTF-8 Plain Text
Title : ➨ Full
Language : Italian
Default : No
Forced : No
Text #12
ID : 12
Format : UTF-8
Codec ID : S_TEXT/UTF8
Codec ID/Info : UTF-8 Plain Text
Title : ➨ Full
Language : Romanian
Default : No
Forced : No
Text #13
ID : 13
Format : UTF-8
Codec ID : S_TEXT/UTF8
Codec ID/Info : UTF-8 Plain Text
Title : ➨ Full
Language : Serbian
Default : No
Forced : No
Text #14
ID : 14
Format : UTF-8
Codec ID : S_TEXT/UTF8
Codec ID/Info : UTF-8 Plain Text
Title : ➨ Full
Language : Turkish
Default : No
Forced : No
Menu
00:00:00.000 : nl: ➨ HDR 01
00:12:06.291 : nl: ➨ HDR 02
00:21:00.666 : nl: ➨ HDR 03
00:30:23.541 : nl: ➨ HDR 04
00:38:17.875 : nl: ➨ HDR 05
00:47:24.250 : nl: ➨ HDR 06
00:57:40.541 : nl: ➨ HDR 07
01:06:09.583 : nl: ➨ HDR 08
01:16:51.541 : nl: ➨ HDR 09
01:24:06.541 : nl: ➨ HDR 10
01:33:29.583 : nl: ➨ HDR 11
01:43:39.083 : nl: ➨ HDR 12



   Похожие торренты   Торрент   Размер 
В этой теме нет новых непрочитанных сообщений. Разомкнутый круг / Разорванный круг / The Broken Circle Breakdown (2012) HDRip | P

147 | 12

1.46 ГБ

В этой теме нет новых непрочитанных сообщений. Разомкнутый круг / Разорванный круг / The Broken Circle Breakdown (2012) HDRip-AVC | iPhone

33 | 10

617.08 МБ

В этой теме нет новых непрочитанных сообщений. Разомкнутый круг / The Broken Circle Breakdown (2012) BDRip 1080p | P

44 | 39

7.94 ГБ

В этой теме нет новых непрочитанных сообщений. Разомкнутый круг / The Broken Circle Breakdown (2012) BDRip 1080p от HQCLUB | P2, L1 | Лицензия

4 | 3

8.4 ГБ

В этой теме нет новых непрочитанных сообщений. Разомкнутый круг / The Broken Circle Breakdown (2012) HDRip от Scarabey | P

66 | 17

744.9 МБ

В этой теме нет новых непрочитанных сообщений. Разомкнутый круг / The Broken Circle Breakdown (2012) HDRip от MediaClub | КПК

12 | 8

384.81 МБ

В этой теме нет новых непрочитанных сообщений. Разомкнутый круг / The Broken Circle Breakdown (2012) HDRip от Scarabey

73 | 23

1.45 ГБ




Вы не можете начинать темы
Вы не можете отвечать на сообщения
Вы не можете редактировать свои сообщения
Вы не можете удалять свои сообщения
Вы не можете добавлять вложения

Перейти:  
 Вход
ppkBB3cker v.2 © 2008-2014 @ PPK
[ Time : 0.019s | 16 Queries | GZIP : Off ]

cron