img image001 image001 image001 image001 image001 image001 image001 image001 image001 image001 image001 image001 image001 image001 image001 image001

Planets Sun Sun Sun
Статистика раздачи
Автор: PriZraK | Размер: 2.18 ГБ | Добавлен: 23 июн 2014
Раздают: 52    Качают: 15
Скачать торрент
Скачать торрент
Описание торрента

СообщениеДобавлено: 23 июн 2014 

Информация о фильме
Название: Темная половина
Оригинальное название: The Dark Half
Год выхода: 1993
Жанр: ужасы, детектив
Режиссер: Джордж А. Ромеро
В ролях: Тимоти Хаттон, Эми Мэдиган, Майкл Рукер, Джули Харрис, Роберт Джой, Кент Бродхерст, Бет Грант, Рутанья Алда, Том Мардиросян, Ларри Джон Мейерс

О фильме:
Тэд Бомон - удачливый писатель. На его бестселлерах стоит имя Джорджа Старка, но это не псевдоним, это - его таинственный двойник, который с детства преследует свою реальную половину из темных глубин подсознания. Именно он на протяжении уже стольких лет водит рукой Тэда вопреки его воле.

Желая избавиться от плода собственного воображения, литератор устраивает похороны своего невидимого отражения. Но никто не в силах избавиться от собственной тени. Она оживает и начинает мстить...


Страна: США
Продолжительность: 01:56:13
Перевод: Профессиональный (многоголосый закадровый)

Файл
Кодек: MPEG-4 AVC
Качество: HDTVRip-AVC
Видео: 1024x576 at 25.000 fps, 2496 kbps
Аудио: 48 kHz, AC3, 2/0 (L,R) ch, ~192 .00 kbps

General
Unique ID : 245011480950135141021595143939683314184 (0xB8537EAA6E0941CEA87C4145BB60EA08)
Complete name : D:КИНОTemnaja.Polovina.(1993).HDTVRip-AVC.[-=DoMiNo=-].mkv
Format : Matroska
Format version : Version 2
File size : 2.18 GiB
Duration : 1h 56mn
Overall bit rate : 2 689 Kbps
Encoded date : UTC 2014-06-22 21:27:18
Writing application : mkvmerge v6.1.0 ('Old Devil') built on Mar 4 2013 09:10:42
Writing library : libebml v1.3.0 + libmatroska v1.4.0

Video
ID : 1
Format : AVC
Format/Info : Advanced Video Codec
Format profile : High@L4.1
Format settings, CABAC : Yes
Format settings, ReFrames : 10 frames
Codec ID : V_MPEG4/ISO/AVC
Duration : 1h 56mn
Bit rate : 2 496 Kbps
Width : 1 024 pixels
Height : 576 pixels
Display aspect ratio : 16:9
Frame rate mode : Constant
Frame rate : 25.000 fps
Color space : YUV
Chroma subsampling : 4:2:0
Bit depth : 8 bits
Scan type : Progressive
Bits/(Pixel*Frame) : 0.169
Stream size : 1.98 GiB (91%)
Writing library : x264 core 130 r2273 b3065e6
Encoding settings : cabac=1 / ref=10 / deblock=1:-3:-3 / analyse=0x3:0x133 / me=umh / subme=11 / psy=1 / psy_rd=1.00:0.50 / mixed_ref=1 / me_range=32 / chroma_me=1 / trellis=2 / 8x8dct=1 / cqm=0 / deadzone=21,11 / fast_pskip=0 / chroma_qp_offset=-3 / threads=16 / lookahead_threads=4 / sliced_threads=0 / slices=4 / nr=0 / decimate=1 / interlaced=0 / bluray_compat=0 / constrained_intra=0 / bframes=12 / b_pyramid=2 / b_adapt=2 / b_bias=0 / direct=3 / weightb=1 / open_gop=0 / weightp=2 / keyint=250 / keyint_min=23 / scenecut=40 / intra_refresh=0 / rc_lookahead=50 / rc=2pass / mbtree=1 / bitrate=2496 / ratetol=1.0 / qcomp=0.70 / qpmin=0 / qpmax=69 / qpstep=4 / cplxblur=20.0 / qblur=0.5 / ip_ratio=1.40 / aq=2:1.50
Default : Yes
Forced : No

Audio
ID : 2
Format : AC-3
Format/Info : Audio Coding 3
Mode extension : CM (complete main)
Format settings, Endianness : Big
Codec ID : A_AC3
Duration : 1h 56mn
Bit rate mode : Constant
Bit rate : 192 Kbps
Channel(s) : 2 channels
Channel positions : Front: L R
Sampling rate : 48.0 KHz
Bit depth : 16 bits
Compression mode : Lossy
Stream size : 160 MiB (7%)
Language : Russian
Default : Yes
Forced : No








   Похожие торренты   Торрент   Размер 
В этой теме нет новых непрочитанных сообщений. Темная половина / The Dark Half (1993) BDRip от HQCLUB

34 | 4

2.18 ГБ

В этой теме нет новых непрочитанных сообщений. Темная половина / The Dark Half (1993) BDRip от HQ-ViDEO

0 | 0

2.18 ГБ

В этой теме нет новых непрочитанных сообщений. Темная половина / The Dark Half (1993) BDRip 720p от MediaClub | P, P2, A

12 | 8

11.12 ГБ

В этой теме нет новых непрочитанных сообщений. Вторая половина / The Other Half (2006) DVDRip от MediaClub

118 | 12

1.45 ГБ

В этой теме нет новых непрочитанных сообщений. Полу-Нельсон / Половина Нельсона / Half Nelson (2006) DVDRip | P2

150 | 23

1.45 ГБ

В этой теме нет новых непрочитанных сообщений. Темная Вселенная / Темная лига справедливости / Justice League Dark (2017) BDRip от rs.bandito | L

116 | 5

1.48 ГБ

В этой теме нет новых непрочитанных сообщений. Темная Вселенная / Тёмная Лига Справедливости / Justice League Dark (2017) BDRip 720р | Shadow Dub

233 | 10

2.66 ГБ




Вы не можете начинать темы
Вы не можете отвечать на сообщения
Вы не можете редактировать свои сообщения
Вы не можете удалять свои сообщения
Вы не можете добавлять вложения

Перейти:  
 Вход
ppkBB3cker v.2 © 2008-2014 @ PPK
[ Time : 0.025s | 16 Queries | GZIP : Off ]

cron