img image001 image001 image001 image001 image001 image001 image001 image001 image001 image001 image001 image001 image001 image001 image001 image001

Planets Sun Sun Sun
Статистика раздачи
Автор: Nickolas3434 | Размер: 1.46 ГБ | Добавлен: 25 июн 2014
Раздают: 2    Качают: 3
Скачать торрент
Скачать торрент
Описание торрента

СообщениеДобавлено: 25 июн 2014 

«Ловушка для киллера»



Страна: США
Производство: Pacific Western, Paramount Pictures, Rysher Entertainment
Жанр: триллер, криминал, детектив
Год выпуска: 1997
Продолжительность: 01:58:12

Перевод: Профессиональный (многоголосый, закадровый) СТС,
Авторский (одноголосый закадровый) Живов, Гаврилов
Оригинальная аудиодорожка: английский
Cубтитры: русский, английский

Режиссер: Джеб Стюарт / Jeb Stuart

В ролях:
Деннис Куэйд (Frank LaCrosse), Дэнни Гловер (Bob Goodall), Джаред Лето (Lane Dixon), Тед Левайн (Deputy Nate Booker), Клаудия Стеделин (Missy, the Babysitter), Йен Блейк Нельсон (Andy LaCrosse), Брент Хинкли (Man on Porch), Р. Ли Эрми (Sheriff Buck Olmstead), Уолтон Гоггинс (Bud, (as Walt Goggins)), Луис Шефер (Sim), Уильям Фихтнер (Chief Jack McGinnis), Роберт Л. Сомерс (Rancher)...

Описание:
Ожесточенная схватка между специальным агентом ФБР Фрэнком ЛаГроссом и серийным убийцей должна завершиться смертью одного из них… Полтора года Фрэнк преследовал таинственного преступника с характерным «хирургическим» почерком. Никто не знал о нем больше, чем Фрэнк, но это были не факты, а интуиция профессионала. Между тем, убийца знал о Фрэнке все и жаждал очной дуэли. И он похищает сына Фрэнка, обозначая тем самым личностный мотив их противоборства…






Исходник: HDTV 1080i
Тип релиза: HDTVRip
Контейнер: AVI

Видео: 720x304 (2,35:1), 23,976 fps, XviD ~ 985 kbps avg, 0.188 bit/pixel
Аудио: 48 kHz, Dolby Digital AC3 2.0, 192 kbps MVO СТС
Аудио: 48 kHz, Dolby Digital AC3 2.0, 192 kbps AVO Живов
Аудио: 48 kHz, Dolby Digital AC3 2.0, 192 kbps AVO Гаврилов
Аудио: 48 kHz, Dolby Digital AC3 2.0, 192 kbps Английский
Субтитры: SoftSub (srt)

Раздача от:
Общее
Полное имя : Американские.горки.1997.HDTVRip_[New-team]_by_AVP_Studio.avi
Формат : AVI
Формат/Информация : Audio Video Interleave
Размер файла : 1,46 Гбайт
Продолжительность : 1 ч. 57 м.
Общий поток : 1777 Кбит/сек
Программа кодирования : VirtualDubModRus 1.5.10.2 (build 2542/release)
Библиотека кодирования : VirtualDubMod build 2542/release

Видео
Идентификатор : 0
Формат : MPEG-4 Visual
Профиль формата : Advanced Simple@L5
Параметр BVOP формата : 1
Параметр QPel формата : Нет
Параметр GMC формата : Без точки перехода
Параметр матрицы формата : Выборочная
Идентификатор кодека : XVID
Идентификатор кодека/Подсказка : XviD
Продолжительность : 1 ч. 57 м.
Битрейт : 985 Кбит/сек
Ширина : 720 пикселей
Высота : 304 пикселя
Соотношение сторон : 2,35:1
Частота кадров : 23,976 кадра/сек
Цветовое пространство : YUV
Субдискретизация насыщенности : 4:2:0
Битовая глубина : 8 бит
Тип развёртки : Прогрессивная
Метод сжатия : С потерями
Бит/(Пиксели*Кадры) : 0.188
Размер потока : 831 Мбайт (55%)
Библиотека кодирования : XviD 73

Аудио #1
Идентификатор : 1
Формат : AC-3
Формат/Информация : Audio Coding 3
Расширение режима : CM (complete main)
Параметр Endianness формата : Big
Идентификатор кодека : 2000
Продолжительность : 1 ч. 57 м.
Вид битрейта : Постоянный
Битрейт : 192 Кбит/сек
Каналы : 2 канала
Расположение каналов : Front: L R
Частота : 48,0 КГц
Битовая глубина : 16 бит
Метод сжатия : С потерями
Размер потока : 162 Мбайт (11%)
Выравнивание : Разделение по промежуткам
Продолжительность промежутка : 42 мс. (1,00 видеокадр)
Время предзагрузки промежутка : 500 мс.

Аудио #2
Идентификатор : 2
Формат : AC-3
Формат/Информация : Audio Coding 3
Расширение режима : CM (complete main)
Параметр Endianness формата : Big
Идентификатор кодека : 2000
Продолжительность : 1 ч. 57 м.
Вид битрейта : Постоянный
Битрейт : 192 Кбит/сек
Каналы : 2 канала
Расположение каналов : Front: L R
Частота : 48,0 КГц
Битовая глубина : 16 бит
Метод сжатия : С потерями
Размер потока : 162 Мбайт (11%)
Выравнивание : Разделение по промежуткам
Продолжительность промежутка : 42 мс. (1,00 видеокадр)
Время предзагрузки промежутка : 500 мс.

Аудио #3
Идентификатор : 3
Формат : AC-3
Формат/Информация : Audio Coding 3
Расширение режима : CM (complete main)
Параметр Endianness формата : Big
Идентификатор кодека : 2000
Продолжительность : 1 ч. 57 м.
Вид битрейта : Постоянный
Битрейт : 192 Кбит/сек
Каналы : 2 канала
Расположение каналов : Front: L R
Частота : 48,0 КГц
Битовая глубина : 16 бит
Метод сжатия : С потерями
Размер потока : 162 Мбайт (11%)
Выравнивание : Разделение по промежуткам
Продолжительность промежутка : 42 мс. (1,00 видеокадр)
Время предзагрузки промежутка : 500 мс.

Аудио #4
Идентификатор : 4
Формат : AC-3
Формат/Информация : Audio Coding 3
Профиль формата : Dolby Digital
Расширение режима : CM (complete main)
Параметр Endianness формата : Big
Идентификатор кодека : 2000
Продолжительность : 1 ч. 57 м.
Вид битрейта : Постоянный
Битрейт : 192 Кбит/сек
Каналы : 2 канала
Расположение каналов : Front: L R
Частота : 48,0 КГц
Битовая глубина : 16 бит
Метод сжатия : С потерями
Размер потока : 162 Мбайт (11%)
Выравнивание : Разделение по промежуткам
Продолжительность промежутка : 42 мс. (1,00 видеокадр)
Время предзагрузки промежутка : 500 мс





   Похожие торренты   Торрент   Размер 
В этой теме нет новых непрочитанных сообщений. Американские горки / Switchback (1997) HDTVRip от New-Team | P

3 | 12

744.83 МБ

В этой теме нет новых непрочитанных сообщений. Американские горки / Switchback (1997) HDTVRip-AVC от New-Team | P, A

12 | 2

2.19 ГБ

В этой теме нет новых непрочитанных сообщений. Американские горки / Switchback (1997) HDTVRip от Leon-masl

215 | 31

1.46 ГБ

В этой теме нет новых непрочитанных сообщений. Американские горки / Switchback (1997) WEBRip-AVC | P, A

14 | 0

1.45 ГБ

В этой теме нет новых непрочитанных сообщений. Американские горки / Switchback (1997) WEBRip | P, A

3 | 1

2.17 ГБ

В этой теме нет новых непрочитанных сообщений. Американские горки / Switchback (1997) WEBRip-AVC | P

8 | 0

748.78 МБ

В этой теме нет новых непрочитанных сообщений. Американские горки / Switchback (1997) WEBRip 1080p | P, A

4 | 0

8.24 ГБ




Вы не можете начинать темы
Вы не можете отвечать на сообщения
Вы не можете редактировать свои сообщения
Вы не можете удалять свои сообщения
Вы не можете добавлять вложения

Перейти:  
 Вход
ppkBB3cker v.2 © 2008-2014 @ PPK
[ Time : 0.034s | 17 Queries | GZIP : Off ]

cron