img image001 image001 image001 image001 image001 image001 image001 image001 image001 image001 image001 image001 image001 image001 image001

Planets Sun Sun Sun
Статистика раздачи
Автор: Nickolas3434 | Размер: 8.65 ГБ | Добавлен: 30 июн 2014
Раздают: 32    Качают: 13
Скачать торрент
Скачать торрент
Описание торрента

СообщениеДобавлено: 30 июн 2014 

Информация о фильме
Название: Чокнутый профессор
Оригинальное название: The Nutty Professor
Год выхода: 1996
Жанр: Комедия, фантастика, мелодрама
Режиссер: Том Шэдьяк
В ролях: Эдди Мёрфи, Джада Пинкетт Смит, Джеймс Коберн, Ларри Миллер, Дэйв Шапелл, Джон Алес, Патриция Уилсон, Ямал Миксон, Николь МакОли, Хэмилтон Фон Уоттс

О фильме:
Любовь заставляет страдающего от чрезмерной полноты профессора Шермана Клампа провести над собой смелый эксперимент. Чудодейственный препарат превращает неуклюжего, но доброго и деликатного толстяка в нахального повесу-ловеласа. Две ипостаси гениального ученого вступают в борьбу за право существования. Неконтролируемые метаморфозы героя порождают множество комических ситуаций.


Страна: США
Студия: Imagine Entertainment, Universal Pictures
Продолжительность: 01:35:10
Перевод: Профессиональный многоголосый, Aвторский одноголосый

Файл
Кодек: h.264
Качество: BDRip 1080p
Видео: MPEG-4, 1920x1040, 11.0 Мбит/с, 23.976 кадр/с
Звук:
Аудио #1: Русский ( AC3, 6ch, 448 Кбит/с, 48.0 KHz) Многоголосый закадровый
Аудио #2: Русский ( AC3, 2ch, 192 Кбит/с, 48.0 KHz) Многоголосый закадровый [Россия]
Аудио #3: Русский ( AC3, 2ch, 192 Кбит/с, 48.0 KHz) Многоголосый закадровый [ОРТ]
Аудио #4: Русский ( AC3, 2ch, 192 Кбит/с, 48.0 KHz) Многоголосый закадровый [Universal Channel]
Аудио #5: Русский ( AC3, 2ch, 224 Кбит/с, 48.0 KHz) Одноголосый закадровый [П. Санаев]
Аудио #6: Русский ( AC3, 2ch, 192 Кбит/с, 48.0 KHz) Одноголосый закадровый [ Ю. Живов]
Аудио #7: Русский ( AC3, 2ch, 192 Кбит/с, 48.0 KHz) Одноголосый закадровый [С. Визгунов]
Аудио #8: Английский (AC3, 6ch, 640 Кбит/с, 48.0 KHz) Оригинал
Complete name : The.Nutty.Professor.1996.x264.BDRip.1080p.mkv
Format : Matroska
Format version : Version 4 / Version 2
File size : 8.65 GiB
Duration : 1h 35mn
Overall bit rate : 13.0 Mbps
Encoded date : UTC 2014-06-29 06:33:57
Writing application : mkvmerge v6.9.1 ('Blue Panther') 64bit built on Apr 18 2014 18:23:38
Writing library : libebml v1.3.0 + libmatroska v1.4.1

Video
ID : 1
Format : AVC
Format/Info : Advanced Video Codec
Format profile : High@L4.0
Format settings, CABAC : Yes
Format settings, ReFrames : 4 frames
Codec ID : V_MPEG4/ISO/AVC
Duration : 1h 35mn
Nominal bit rate : 11.0 Mbps
Width : 1 920 pixels
Height : 1 040 pixels
Display aspect ratio : 1.85:1
Frame rate mode : Constant
Frame rate : 23.976 fps
Color space : YUV
Chroma subsampling : 4:2:0
Bit depth : 8 bits
Scan type : Progressive
Bits/(Pixel*Frame) : 0.230
Title : Video
Writing library : x264 core 112
Encoding settings : cabac=1 / ref=4 / deblock=1:-3:-3 / analyse=0x3:0x133 / me=umh / subme=10 / psy=1 / psy_rd=1.00:0.00 / mixed_ref=0 / me_range=24 / chroma_me=1 / trellis=2 / 8x8dct=1 / cqm=0 / deadzone=21,11 / fast_pskip=1 / chroma_qp_offset=-2 / threads=8 / sliced_threads=0 / nr=0 / decimate=1 / interlaced=0 / constrained_intra=0 / bframes=5 / b_pyramid=2 / b_adapt=1 / b_bias=0 / direct=3 / weightb=0 / open_gop=0 / weightp=2 / keyint=240 / keyint_min=23 / scenecut=40 / intra_refresh=0 / rc_lookahead=40 / rc=abr / mbtree=1 / bitrate=11000 / ratetol=1.0 / qcomp=0.60 / qpmin=3 / qpmax=51 / qpstep=4 / ip_ratio=1.40 / aq=1:1.00
Language : English
Default : Yes
Forced : No
Color primaries : BT.709
Transfer characteristics : BT.709
Matrix coefficients : BT.709

Audio #1
ID : 2
Format : AC-3
Format/Info : Audio Coding 3
Mode extension : CM (complete main)
Format settings, Endianness : Big
Codec ID : A_AC3
Duration : 1h 35mn
Bit rate mode : Constant
Bit rate : 448 Kbps
Channel(s) : 6 channels
Channel positions : Front: L C R, Side: L R, LFE
Sampling rate : 48.0 KHz
Bit depth : 16 bits
Compression mode : Lossy
Stream size : 305 MiB (3%)
Title : Audio 1
Language : Russian
Default : Yes
Forced : No

Audio #2
ID : 3
Format : AC-3
Format/Info : Audio Coding 3
Mode extension : CM (complete main)
Format settings, Endianness : Big
Codec ID : A_AC3
Duration : 1h 35mn
Bit rate mode : Constant
Bit rate : 192 Kbps
Channel(s) : 2 channels
Channel positions : Front: L R
Sampling rate : 48.0 KHz
Bit depth : 16 bits
Compression mode : Lossy
Stream size : 131 MiB (1%)
Title : Audio 2 - Россия
Language : Russian
Default : No
Forced : No

Audio #3
ID : 4
Format : AC-3
Format/Info : Audio Coding 3
Mode extension : CM (complete main)
Format settings, Endianness : Big
Codec ID : A_AC3
Duration : 1h 35mn
Bit rate mode : Constant
Bit rate : 192 Kbps
Channel(s) : 2 channels
Channel positions : Front: L R
Sampling rate : 48.0 KHz
Bit depth : 16 bits
Compression mode : Lossy
Stream size : 131 MiB (1%)
Title : Audio 3 - ОРТ
Language : Russian
Default : No
Forced : No

Audio #4
ID : 5
Format : AC-3
Format/Info : Audio Coding 3
Mode extension : CM (complete main)
Format settings, Endianness : Big
Codec ID : A_AC3
Duration : 1h 35mn
Bit rate mode : Constant
Bit rate : 192 Kbps
Channel(s) : 2 channels
Channel positions : Front: L R
Sampling rate : 48.0 KHz
Bit depth : 16 bits
Compression mode : Lossy
Stream size : 131 MiB (1%)
Title : Audio 4 - Universal Channel
Language : Russian
Default : No
Forced : No

Audio #5
ID : 6
Format : AC-3
Format/Info : Audio Coding 3
Mode extension : CM (complete main)
Format settings, Endianness : Big
Codec ID : A_AC3
Duration : 1h 35mn
Bit rate mode : Constant
Bit rate : 224 Kbps
Channel(s) : 2 channels
Channel positions : Front: L R
Sampling rate : 48.0 KHz
Bit depth : 16 bits
Compression mode : Lossy
Stream size : 152 MiB (2%)
Title : Audio 5 - П. Санаев
Language : Russian
Default : No
Forced : No

Audio #6
ID : 7
Format : AC-3
Format/Info : Audio Coding 3
Codec ID : A_AC3
Duration : 1h 35mn
Channel(s) : 2 channels
Sampling rate : 48.0 KHz
Compression mode : Lossy
Title : Audio 6 - Ю. Живов
Language : Russian
Default : No
Forced : No

Audio #7
ID : 8
Format : AC-3
Format/Info : Audio Coding 3
Codec ID : A_AC3
Duration : 1h 35mn
Channel(s) : 2 channels
Sampling rate : 48.0 KHz
Compression mode : Lossy
Title : Audio 7 - С. Визгунов
Language : Russian
Default : No
Forced : No

Audio #8
ID : 9
Format : AC-3
Format/Info : Audio Coding 3
Mode extension : CM (complete main)
Format settings, Endianness : Big
Codec ID : A_AC3
Duration : 1h 35mn
Bit rate mode : Constant
Bit rate : 640 Kbps
Channel(s) : 6 channels
Channel positions : Front: L C R, Side: L R, LFE
Sampling rate : 48.0 KHz
Bit depth : 16 bits
Compression mode : Lossy
Stream size : 436 MiB (5%)
Title : Audio 8 - Original
Language : English
Default : No
Forced : No





   Похожие торренты   Торрент   Размер 
В этой теме нет новых непрочитанных сообщений. Чокнутый профессор / The Nutty Professor (1996) BDRemux 1080p от MediaClub | P, P2, A

7 | 20

25.65 ГБ

В этой теме нет новых непрочитанных сообщений. Чокнутый профессор / The Nutty Professor (1996) BDRip-AVC от New-Team

99 | 14

744.46 МБ

В этой теме нет новых непрочитанных сообщений. Чокнутый профессор / The Nutty Professor (1996) BDRip от HQCLUB

24 | 2

1.45 ГБ

В этой теме нет новых непрочитанных сообщений. Чокнутый профессор / The Nutty Professor (1996) BDRip 720p от k.e.n & NNMClub | P, P2, A

3 | 1

4.37 ГБ

В этой теме нет новых непрочитанных сообщений. Чокнутый профессор / The Nutty Professor (1996) BDRip 720p от MediaClub | P, P2, A

31 | 32

7.02 ГБ

В этой теме нет новых непрочитанных сообщений. Чокнутый профессор / The Nutty Professor (1996) HDRip от HQ-ViDEO

77 | 8

1.46 ГБ

В этой теме нет новых непрочитанных сообщений. Чокнутый профессор / The Nutty Professor (1996) HD-DVDRip 720p от NOLIMITS-TEAM

10 | 5

2.28 ГБ




Вы не можете начинать темы
Вы не можете отвечать на сообщения
Вы не можете редактировать свои сообщения
Вы не можете удалять свои сообщения
Вы не можете добавлять вложения

Перейти:  
Для Мосгорсуда, Роскомнадзора и рекламодателей: mosgorsud-torrent[собачка]yandex.ru
 Вход
ppkBB3cker v.2 © 2008-2014 @ PPK
[ Time : 0.049s | 15 Queries | GZIP : Off ]

Торрент трекер RUTOR.IN, Не можете зайти на rutor.org? Какой новый адрес рутор? Какое зеркало рутор? Не работает rutor.org и зеркала? Тогда наш торрент специально для вас. Rutor.in неофициальное зеркало rutor. В случае если у Вас заблокирован rutor или вдруг Вы не можете на него зайти, то Вы без труда сможете скачать бесплатно и без рекламы последние новинки кино, игр, сериалов и прочего у нас, на Rutor.in. Не нужно использовать прокси, чтобы зайти на рутор, достаточно воспользоваться нашим ресурсом. Все новые фильмы, игры, сериалы, книги и музыка за 2013 и 2014 годы через торрент бесплатно. Скачивайте фильмы в хорошем качестве, игры для пк, xbox, playstation без регистрации. У нас вы найдете новые Зарубежные сериалы и Русские сериалы 2013, 2014, 2015 годов. Оставайтесь с нами, качайте любимые фильмы, игры, сериалы, книги и музыку.
cron