img image001 image001 image001 image001 image001 image001 image001 image001 image001 image001 image001 image001 image001 image001 image001 image001

Planets Sun Sun Sun
Статистика раздачи
Автор: Nickolas3434 | Размер: 2.4 ГБ | Добавлен: 30 июн 2014
Раздают: 22    Качают: 6
Скачать торрент
Скачать торрент
Описание торрента

СообщениеДобавлено: 30 июн 2014 

Информация о фильме
Название: Самый длинный ярд
Оригинальное название: The Longest Yard
Год выхода: 1974
Жанр: комедия, драма, криминал, спорт
Режиссер: Роберт Олдрич / Robert Aldrich
В ролях: Берт Рейнолдс /Burt Reynolds/, Эдди Альберт /Eddie Albert/, Эд Лотер /Ed Lauter/, Майкл Конрад /Michael Conrad/, Джеймс Хэмптон /James Hampton/, Гарри Цезар /Harry Caesar/, Джон Стэдмен /John Steadman/, Чарльз Тайнер /Charles Tyner/, Майк Генри /Mike Henry/, Джим Николсон /Jim Nicholson/

О фильме:
Главный герой — бывший профессиональный футболист Пол Круи, оказывается за решеткой. Амбициозный и жестокий комендант тюрьмы мечтает «протолкнуть» полупрофессиональную футбольную команду своих охранников на национальный чемпионат.
Он предлагает Полу сделку — устроить необычный футбольный матч между командой отбывающих наказание и сборной охранников с одним немаловажным условием: заключенные должны проиграть… в обмен на досрочное освобождение Круи. Итак, игра без правил началась.

Страна: США
Студия: Paramount Pictures, Albert S. Ruddy Productions, Long Road Productions
Продолжительность: 01:56:11.000
Перевод: Профессиональный (многоголосый закадровый) СТС

Файл
Кодек: h.264
Качество: DVDRip-AVC
Видео: 704x560 (16:9) @ 996x560 (анаморф), 25.000 fps, AVC, ~2572 Kbps, 0.261 bits/pixel
Звук:
Русский, 48.0 KHz, AC3, 2 ch, 192 Kbps
Английский, 48.0 KHz, AC3, 2 ch, 192 Kbps
Субтитры: Английские, VobSub

бщее
Уникальный идентификатор : 190106049775355218098324753185309512766 (0x8F0517E8386EB2D190D15C55AD94D43E)
Полное имя : H:FilmsSamiy.Dlinniy.Yard.1974.DVDRip-AVC.mkv
Формат : Matroska
Версия формата : Version 4 / Version 2
Размер файла : 2,40 Гбайт
Продолжительность : 1 ч. 56 м.
Общий поток : 2960 Кбит/сек
Дата кодирования : UTC 2014-06-28 07:54:05
Программа кодирования : mkvmerge v7.0.0 ('Where We Going') 64bit built on Jun 9 2014 15:16:27
Библиотека кодирования : libebml v1.3.0 + libmatroska v1.4.1
DURATION : 01:55:57.194000000
NUMBER_OF_FRAMES : 1301
NUMBER_OF_BYTES : 2144941
_STATISTICS_WRITING_APP : mkvmerge v7.0.0 ('Where We Going') 64bit built on Jun 9 2014 15:16:27
_STATISTICS_WRITING_DATE_UTC : 2014-06-28 07:54:05
_STATISTICS_TAGS : BPS DURATION NUMBER_OF_FRAMES NUMBER_OF_BYTES

Видео
Идентификатор : 1
Формат : AVC
Формат/Информация : Advanced Video Codec
Профиль формата : High@L4.1
Параметр CABAC формата : Да
Параметр ReFrames формата : 16 кадров
Идентификатор кодека : V_MPEG4/ISO/AVC
Продолжительность : 1 ч. 56 м.
Битрейт : 2572 Кбит/сек
Ширина : 704 пикселя
Высота : 560 пикселей
Соотношение сторон : 16:9
Соотношение сторон в оригинале : 16:9
Режим частоты кадров : Постоянный
Частота кадров : 25,000 кадров/сек
Цветовое пространство : YUV
Субдискретизация насыщенности : 4:2:0
Битовая глубина : 8 бит
Тип развёртки : Прогрессивная
Бит/(Пиксели*Кадры) : 0.261
Размер потока : 2,04 Гбайт (85%)
Библиотека кодирования : x264 core 138 r2358 9e941d1
Настройки программы : cabac=1 / ref=16 / deblock=1:0:0 / analyse=0x3:0x133 / me=umh / subme=10 / psy=1 / psy_rd=1.10:0.10 / mixed_ref=1 / me_range=32 / chroma_me=1 / trellis=2 / 8x8dct=1 / cqm=0 / deadzone=21,11 / fast_pskip=0 / chroma_qp_offset=-3 / threads=8 / lookahead_threads=2 / sliced_threads=0 / nr=0 / decimate=0 / interlaced=0 / bluray_compat=0 / constrained_intra=0 / bframes=10 / b_pyramid=2 / b_adapt=2 / b_bias=0 / direct=3 / weightb=1 / open_gop=0 / weightp=2 / keyint=250 / keyint_min=25 / scenecut=60 / intra_refresh=0 / rc_lookahead=60 / rc=2pass / mbtree=0 / bitrate=2572 / ratetol=1.0 / qcomp=0.60 / qpmin=0 / qpmax=69 / qpstep=4 / cplxblur=20.0 / qblur=0.5 / vbv_maxrate=50000 / vbv_bufsize=62500 / nal_hrd=none / ip_ratio=1.40 / pb_ratio=1.30 / aq=1:1.00
Default : Нет
Forced : Нет
Коэффициенты матрицы : BT.601
DURATION : 01:56:11.000000000
NUMBER_OF_FRAMES : 174275
NUMBER_OF_BYTES : 2240926791
_STATISTICS_WRITING_APP : mkvmerge v7.0.0 ('Where We Going') 64bit built on Jun 9 2014 15:16:27
_STATISTICS_WRITING_DATE_UTC : 2014-06-28 07:54:05
_STATISTICS_TAGS : BPS DURATION NUMBER_OF_FRAMES NUMBER_OF_BYTES

Аудио #1
Идентификатор : 2
Формат : AC-3
Формат/Информация : Audio Coding 3
Расширение режима : CM (complete main)
Параметр Endianness формата : Big
Идентификатор кодека : A_AC3
Продолжительность : 1 ч. 56 м.
Вид битрейта : Постоянный
Битрейт : 192 Кбит/сек
Каналы : 2 канала
Расположение каналов : Front: L R
Частота : 48,0 КГц
Битовая глубина : 16 бит
Метод сжатия : С потерями
Размер потока : 160 Мбайт (6%)
Язык : Russian
Default : Да
Forced : Нет

Аудио #2
Идентификатор : 3
Формат : AC-3
Формат/Информация : Audio Coding 3
Расширение режима : CM (complete main)
Параметр Endianness формата : Big
Идентификатор кодека : A_AC3
Продолжительность : 1 ч. 56 м.
Вид битрейта : Постоянный
Битрейт : 192 Кбит/сек
Каналы : 2 канала
Расположение каналов : Front: L R
Частота : 48,0 КГц
Битовая глубина : 16 бит
Метод сжатия : С потерями
Размер потока : 160 Мбайт (6%)
Язык : English
Default : Нет
Forced : Нет

Текст
Идентификатор : 4
Формат : VobSub
Режим смешивания : zlib
Идентификатор кодека : S_VOBSUB
Идентификатор кодека/Информация : The same subtitle format used on DVDs
Язык : English
Default : Нет
Forced : Нет

Меню
00:00:00.000 : en:Chapter 01
00:07:00.320 : en:Chapter 02
00:11:53.760 : en:Chapter 03
00:17:39.600 : en:Chapter 04
00:26:04.120 : en:Chapter 05
00:30:41.760 : en:Chapter 06
00:38:51.600 : en:Chapter 07
00:48:34.480 : en:Chapter 08
00:58:48.800 : en:Chapter 09
01:06:41.160 : en:Chapter 10
01:10:13.160 : en:Chapter 11
01:19:19.760 : en:Chapter 12
01:22:48.200 : en:Chapter 13
01:34:12.320 : en:Chapter 14
01:44:52.440 : en:Chapter 15
01:54:28.280 : en:Chapter 16


Исходник R2 DVD9


Релиз от: Temperest



   Похожие торренты   Торрент   Размер 
В этой теме нет новых непрочитанных сообщений. Всё или ничего / Самый длинный ярд / The Longest Yard (Питер Сигал) [2005, комедия, драма, спорт, WEBDLRip] DUB [iTunes]

2 | 2

1.46 ГБ

В этой теме нет новых непрочитанных сообщений. Всё или ничего / The Longest Yard (2005) WEB-DLRip-AVC от k.e.n | D, P2, A

18 | 0

2.82 ГБ

В этой теме нет новых непрочитанных сообщений. Всё или ничего / The Longest Yard (2005) WEB-DL 720p | D, P

260 | 7

4.29 ГБ

В этой теме нет новых непрочитанных сообщений. Всё или ничего / The Longest Yard (2005) HDTVRip от Scarabey | D

59 | 18

747.55 МБ

В этой теме нет новых непрочитанных сообщений. Всё или ничего / The Longest Yard (2005) HDTVRip от Scarabey | D

228 | 29

1.45 ГБ

В этой теме нет новых непрочитанных сообщений. Всё или ничего / The Longest Yard (2005) WEB-DL 1080p от BlueBird | D, P2

112 | 16

5.23 ГБ

В этой теме нет новых непрочитанных сообщений. Всё или ничего / The Longest Yard (2005) HDTVRip-AVC от New-Team

28 | 14

744.79 МБ




Вы не можете начинать темы
Вы не можете отвечать на сообщения
Вы не можете редактировать свои сообщения
Вы не можете удалять свои сообщения
Вы не можете добавлять вложения

Перейти:  
 Вход
ppkBB3cker v.2 © 2008-2014 @ PPK
[ Time : 0.043s | 16 Queries | GZIP : Off ]

cron