img image001 image001 image001 image001 image001 image001 image001 image001 image001 image001 image001 image001 image001 image001 image001 image001

Planets Sun Sun Sun
Статистика раздачи
Автор: Nickolas3434 | Размер: 1.45 ГБ | Добавлен: 02 июл 2014
Раздают: 141    Качают: 33
Скачать торрент
Скачать торрент
Описание торрента

СообщениеДобавлено: 02 июл 2014 

Дьявольский особняк / Поместье Холодный ручей / Cold Creek Manor (2003) BDRip-AVC



Информация о фильме
Название: Дьявольский особняк / Поместье Холодный ручей
Оригинальное название: Cold Creek Manor
Год выхода: 2003
Жанр: триллер, драма, детектив
Режиссер: Майк Фиггис

В ролях: Дэннис Куэйд, Шэрон Стоун, Стивен Дорфф, Джульетт Льюис, Кристен Стюарт, Райан Уилсон, Дэна Эскелсон, Кристофер Пламмер, Саймон Рейнольдс, Кэтлин Дуборг, Пола Бранкати, Эйдан Дивайн, Уэйн Робсон, Джордан Петтл...

О фильме: Супруги Купер и Лия Тилсон годами ждали, чтобы осуществить свою заветную мечту о загородном доме. И, наконец, их чаяния сбылись; они — владельцы необычайно красивого и большого поместья «Холодный ручей». Провинциальный покой, свежий воздух, огромный участок — идеальное место, чтобы достойно встретить старость и дожить до конца дней своих, вот только этот конец может наступить куда раньше, чем предполагалось.

Ужасное, кровавое прошлое усадьбы, о котором героев «забыли» предупредить, вторгается в их настоящее с бывшим владельцем, преступником-психопатом, вернувшимся из тюрьмы. И этот жуткий человек не остановится ни перед чем, чтобы вернуть дом себе. Вернуть любой ценой…



Страна: США, Канада, Великобритания
Продолжительность: 01:58:55
Перевод: Профессиональный (многоголосый закадровый)

Файл
Кодек: x.264
Качество: BDRip-AVC
Видео: 928x496 (1,85:1), 23,976 fps, 1364 kbps, 0.124 bit/pixel
Звук: 48 kHz, AC3 Dolby Digital, 6 ch, ~384.00 kbps
Субтитры: Русские, Английские (отключаемые)

&

Общее
Уникальный идентификатор : 222718211772095842733321843171026616828 (0xA78DF7A25D252DB3A8FA39B64D0141FC)
Полное имя : D:Cold Creek Manor.2003.BDRip-AVC.mkv
Формат : Matroska
Версия формата : Version 4 / Version 2
Размер файла : 1,45 Гбайт
Продолжительность : 1 ч. 58 м.
Общий поток : 1749 Кбит/сек
Название фильма : Дьявольский особняк / Поместье Холодный ручей / Cold Creek Manor (2003) BDRip-AVC rip by Rulya74
Дата кодирования : UTC 2014-07-01 04:23:52
Программа кодирования : mkvmerge v6.5.0 ('Isn't she lovely') built on Oct 20 2013 12:50:05
Библиотека кодирования : libebml v1.3.0 + libmatroska v1.4.1

Видео
Идентификатор : 1
Формат : AVC
Формат/Информация : Advanced Video Codec
Профиль формата : High@L4.1
Параметр CABAC формата : Да
Параметр ReFrames формата : 12 кадров
Идентификатор кодека : V_MPEG4/ISO/AVC
Продолжительность : 1 ч. 58 м.
Битрейт : 1364 Кбит/сек
Ширина : 928 пикселей
Высота : 496 пикселей
Соотношение сторон : 1,85:1
Режим частоты кадров : Постоянный
Частота кадров : 23,976 кадра/сек
Цветовое пространство : YUV
Субдискретизация насыщенности : 4:2:0
Битовая глубина : 8 бит
Тип развёртки : Прогрессивная
Бит/(Пиксели*Кадры) : 0.124
Размер потока : 1,11 Гбайт (76%)
Библиотека кодирования : x264 core 138 r2358 9e941d1
Настройки программы : cabac=1 / ref=12 / deblock=1:-1:-1 / analyse=0x3:0x113 / me=umh / subme=11 / psy=1 / psy_rd=1.00:0.00 / mixed_ref=1 / me_range=48 / chroma_me=1 / trellis=2 / 8x8dct=1 / cqm=0 / deadzone=21,11 / fast_pskip=0 / chroma_qp_offset=-2 / threads=14 / lookahead_threads=3 / sliced_threads=0 / nr=0 / decimate=1 / interlaced=0 / bluray_compat=0 / constrained_intra=0 / bframes=14 / b_pyramid=2 / b_adapt=2 / b_bias=0 / direct=1 / weightb=1 / open_gop=0 / weightp=2 / keyint=240 / keyint_min=23 / scenecut=40 / intra_refresh=0 / rc_lookahead=40 / rc=2pass / mbtree=1 / bitrate=1364 / ratetol=1.0 / qcomp=0.60 / qpmin=0 / qpmax=69 / qpstep=4 / cplxblur=20.0 / qblur=0.5 / vbv_maxrate=62500 / vbv_bufsize=78125 / nal_hrd=none / ip_ratio=1.40 / aq=1:1.00
Default : Да
Forced : Нет

Аудио
Идентификатор : 2
Формат : AC-3
Формат/Информация : Audio Coding 3
Расширение режима : CM (complete main)
Параметр Endianness формата : Big
Идентификатор кодека : A_AC3
Продолжительность : 1 ч. 58 м.
Вид битрейта : Постоянный
Битрейт : 384 Кбит/сек
Каналы : 6 каналов
Расположение каналов : Front: L C R, Side: L R, LFE
Частота : 48,0 КГц
Битовая глубина : 16 бит
Метод сжатия : С потерями
Размер потока : 327 Мбайт (22%)
Язык : Russian
Default : Да
Forced : Нет

Текст #1
Идентификатор : 3
Формат : UTF-8
Идентификатор кодека : S_TEXT/UTF8
Идентификатор кодека/Информация : UTF-8 Plain Text
Язык : Russian
Default : Да
Forced : Нет

Текст #2
Идентификатор : 4
Формат : UTF-8
Идентификатор кодека : S_TEXT/UTF8
Идентификатор кодека/Информация : UTF-8 Plain Text
Язык : English
Default : Нет
Forced : Нет

Меню
00:00:00.000 : en:Chapter 1
00:11:01.369 : en:Chapter 2
00:20:37.236 : en:Chapter 3
00:32:29.656 : en:Chapter 4
00:43:25.352 : en:Chapter 5
00:54:37.607 : en:Chapter 6
01:06:53.175 : en:Chapter 7
01:14:54.364 : en:Chapter 8
01:25:32.085 : en:Chapter 9
01:34:08.309 : en:Chapter 10
01:43:53.268 : en:Chapter 11
01:53:49.197 : en:Chapter 12
01:58:55.545 : en:Chapter 13




   Похожие торренты   Торрент   Размер 
В этой теме нет новых непрочитанных сообщений. Дьявольский особняк / Поместье Холодный ручей / Cold Creek Manor (2003) BDRip 720p | P

56 | 39

4.23 ГБ

В этой теме нет новых непрочитанных сообщений. Дьявольский особняк / Поместье Холодный ручей / Поместье в Колд Крик / Cold Creek Manor (2003) HDRip-AVC | P

13 | 3

743.61 МБ

В этой теме нет новых непрочитанных сообщений. Дьявольский особняк / Поместье Холодный ручей / Cold Creek Manor (2003) BDRemux 1080p от NovaLan

28 | 19

26.01 ГБ

В этой теме нет новых непрочитанных сообщений. Дьявольский особняк / Cold Creek Manor (2003) BDRip-AVC от Koenig

4 | 0

2.9 ГБ

В этой теме нет новых непрочитанных сообщений. Дьявольский особняк / Cold Creek Manor (Майк Фиггис) [2003, триллер, драма, детектив, HDRip] MVO

5 | 0

1.46 ГБ

В этой теме нет новых непрочитанных сообщений. Точный Расчет 2: Поместье Брэссфилда / Dead Reckoning 2: Brassfield Manor CE (2015) РС

590 | 27

761.13 МБ

В этой теме нет новых непрочитанных сообщений. Кровавый ручей / Blood Creek (2009) BDRip 720p от k.e.n & MegaPeer | L1

12 | 0

4.37 ГБ




Вы не можете начинать темы
Вы не можете отвечать на сообщения
Вы не можете редактировать свои сообщения
Вы не можете удалять свои сообщения
Вы не можете добавлять вложения

Перейти:  
 Вход
ppkBB3cker v.2 © 2008-2014 @ PPK
[ Time : 0.043s | 16 Queries | GZIP : Off ]

cron