img image001 image001 image001 image001 image001 image001 image001 image001 image001 image001 image001 image001 image001 image001 image001 image001

Planets Sun Sun Sun
Статистика раздачи
Автор: Nickolas3434 | Размер: 2.91 ГБ | Добавлен: 02 июл 2014
Раздают: 411    Качают: 92
Скачать торрент
Скачать торрент
Описание торрента

СообщениеДобавлено: 02 июл 2014 

Страна: Германия, США, Великобритания
Производство: A&E Television Networks Inc., BBC Television Centre, RTL

Жанр: фантастика, фэнтези, драма, приключения
Год выпуска: 2001
Продолжительность: 02:25:23

Перевод: Профессиональный (многоголосый, закадровый)
Оригинальная аудиодорожка: английский
Cубтитры: нет

Режиссер: Стюарт Орм / Stuart Orme

В ролях:
Боб Хоскинс, Джеймс Фокс, Том Уорд, Мэттью Риз, Илэйн Кэссиди, Питер Фальк, Натаниель Лииз, Тамати Райс, Николь Виппи, Inia Maxwell ...

Описание:
В начале XX века знаменитый профессор Челленджер делает потрясающее открытие — на удаленном плато в джунглях Амазонки существует удивительный и прекрасный мир, в котором до сих пор обитают динозавры. Миллионы лет эволюции его не коснулись — он остался в первозданном виде. Чтобы переубедить скептиков, группа искателей приключений — сам Челленджер, его чудаковатый коллега, богатая наследница, бесстрашный охотник и молодой репортер — отправляются в захватывающее, полное опасностей путешествие на поиски этого удивительного доисторического мира…





Исходник: DVD9 R5
Тип релиза: DVDRip-AVC
Контейнер: MKV

Видео: 704->1002x572 (1.75:1), 25,000 fps, H264 ~ 2027 kbps avg, 0.201 bit/pixel
Аудио: 48 kHz, Dolby Digital AC3 5.1, 384 kbps MVO
Аудио: 48 kHz, Dolby Digital AC3 5.1, 448 kbps Английский

Раздача от:
Общее
Полное имя : Zateryannyy.mir.2001.DVDRip-AVC_[New-team]_by_AVP_Studio.mkv
Формат : Matroska
Версия формата : Version 4 / Version 2
Размер файла : 2,91 Гбайт
Продолжительность : 2 ч. 25 м.
Общий поток : 2861 Кбит/сек
Название фильма : Zateryannyy.mir.2001.DVDRip-AVC_[New-team]_by_AVP_Studio
Дата кодирования : UTC 2014-07-01 18:27:53
Программа кодирования : mkvmerge v6.9.1 ('Blue Panther') 64bit built on Apr 18 2014 18:23:38
Библиотека кодирования : libebml v1.3.0 + libmatroska v1.4.1

Видео
Идентификатор : 1
Формат : AVC
Формат/Информация : Advanced Video Codec
Профиль формата : High@L4.1
Параметр CABAC формата : Да
Параметр ReFrames формата : 8 кадров
Идентификатор кодека : V_MPEG4/ISO/AVC
Продолжительность : 2 ч. 25 м.
Битрейт : 2027 Кбит/сек
Ширина : 704 пикселя
Высота : 572 пикселя
Соотношение сторон : 16:9
Режим частоты кадров : Постоянный
Частота кадров : 25,000 кадров/сек
Цветовое пространство : YUV
Субдискретизация насыщенности : 4:2:0
Битовая глубина : 8 бит
Тип развёртки : Прогрессивная
Бит/(Пиксели*Кадры) : 0.201
Размер потока : 2,00 Гбайт (69%)
Заголовок : Источник DVD
Библиотека кодирования : x264 core 138 r2356 a1d3d17
Настройки программы : cabac=1 / ref=8 / deblock=1:-2:-1 / analyse=0x3:0x113 / me=umh / subme=10 / psy=1 / psy_rd=1.00:0.05 / mixed_ref=1 / me_range=32 / chroma_me=1 / trellis=2 / 8x8dct=1 / cqm=0 / deadzone=21,11 / fast_pskip=0 / chroma_qp_offset=-3 / threads=6 / lookahead_threads=1 / sliced_threads=0 / nr=0 / decimate=0 / interlaced=0 / bluray_compat=0 / constrained_intra=0 / bframes=8 / b_pyramid=2 / b_adapt=2 / b_bias=0 / direct=3 / weightb=1 / open_gop=0 / weightp=2 / keyint=250 / keyint_min=25 / scenecut=40 / intra_refresh=0 / rc=2pass / mbtree=0 / bitrate=2027 / ratetol=1.0 / qcomp=0.60 / qpmin=0 / qpmax=69 / qpstep=4 / cplxblur=20.0 / qblur=0.5 / ip_ratio=1.40 / pb_ratio=1.30 / aq=1:1.00
Язык : English
Default : Да
Forced : Нет

Аудио #1
Идентификатор : 2
Формат : AC-3
Формат/Информация : Audio Coding 3
Расширение режима : CM (complete main)
Параметр Endianness формата : Big
Идентификатор кодека : A_AC3
Продолжительность : 2 ч. 25 м.
Вид битрейта : Постоянный
Битрейт : 384 Кбит/сек
Каналы : 6 каналов
Расположение каналов : Front: L C R, Side: L R, LFE
Частота : 48,0 КГц
Битовая глубина : 16 бит
Метод сжатия : С потерями
Размер потока : 399 Мбайт (13%)
Заголовок : Источник DVD Dolby Digital 5,1 384 kbps MVO
Язык : Russian
Default : Да
Forced : Нет

Аудио #2
Идентификатор : 3
Формат : AC-3
Формат/Информация : Audio Coding 3
Расширение режима : CM (complete main)
Параметр Endianness формата : Big
Идентификатор кодека : A_AC3
Продолжительность : 2 ч. 25 м.
Вид битрейта : Постоянный
Битрейт : 448 Кбит/сек
Каналы : 6 каналов
Расположение каналов : Front: L C R, Side: L R, LFE
Частота : 48,0 КГц
Битовая глубина : 16 бит
Метод сжатия : С потерями
Размер потока : 466 Мбайт (16%)
Заголовок : Источник DVD Dolby Digital 5,1 448 kbps
Язык : English
Default : Нет
Forced : Нет

Меню
00:00:00.000 : ru:00:00:00.000000000
00:05:00.000 : :00:05:00.000000000
00:10:00.000 : :00:10:00.000000000
00:15:00.000 : :00:15:00.000000000
00:20:00.000 : :00:20:00.000000000
00:25:00.000 : :00:25:00.000000000
00:30:00.000 : :00:30:00.000000000
00:35:00.000 : :00:35:00.000000000
00:40:00.000 : :00:40:00.000000000
00:45:00.000 : :00:45:00.000000000
00:50:00.000 : :00:50:00.000000000
00:55:00.000 : :00:55:00.000000000
01:00:00.000 : :01:00:00.000000000
01:05:00.000 : :01:05:00.000000000
01:10:00.000 : :01:10:00.000000000
01:15:00.000 : :01:15:00.000000000
01:20:00.000 : :01:20:00.000000000
01:25:00.000 : :01:25:00.000000000
01:30:00.000 : :01:30:00.000000000
01:35:00.000 : :01:35:00.000000000
01:40:00.000 : :01:40:00.000000000
01:45:00.000 : :01:45:00.000000000
01:50:00.000 : :01:50:00.000000000
01:55:00.000 : :01:55:00.000000000
02:00:00.000 : :02:00:00.000000000
02:05:00.000 : :02:05:00.000000000
02:10:00.000 : :02:10:00.000000000
02:15:00.000 : :02:15:00.000000000
02:20:00.000 : :02:20:00.000000000





   Похожие торренты   Торрент   Размер 
В этой теме нет новых непрочитанных сообщений. Затерянный Мир / The Lost World (1998) DVDRip-AVC от New-Team | P

105 | 21

1.45 ГБ

В этой теме нет новых непрочитанных сообщений. Затерянный мир / The Lost World (1992) DVDRip от New-Team | P

35 | 4

1.46 ГБ

В этой теме нет новых непрочитанных сообщений. Затерянный мир / The Lost World (1992) DVDRip от New-Team | P

36 | 7

744.69 МБ

В этой теме нет новых непрочитанных сообщений. Затерянный Мир / The Lost World (1998) DVDRip от New-Team | P

46 | 19

744.85 МБ

В этой теме нет новых непрочитанных сообщений. Затерянный Мир / The Lost World (1998) DVDRip от New-Team | P

43 | 11

1.46 ГБ

В этой теме нет новых непрочитанных сообщений. Затерянный мир / The Lost World (1992) DVDRip-AVC от New-Team | P

77 | 12

1.46 ГБ

В этой теме нет новых непрочитанных сообщений. Возвращение в Затерянный мир / Return to the Lost World (1992) DVDRip-AVC от New-Team | P

91 | 41

1.46 ГБ




Вы не можете начинать темы
Вы не можете отвечать на сообщения
Вы не можете редактировать свои сообщения
Вы не можете удалять свои сообщения
Вы не можете добавлять вложения

Перейти:  
 Вход
ppkBB3cker v.2 © 2008-2014 @ PPK
[ Time : 0.033s | 19 Queries | GZIP : Off ]

cron