img image001 image001 image001 image001 image001 image001 image001 image001 image001 image001 image001 image001 image001 image001 image001 image001

Planets Sun Sun Sun
Статистика раздачи
Автор: Nickolas3434 | Размер: 1.45 ГБ | Добавлен: 03 июл 2014
Раздают: 205    Качают: 20
Скачать торрент
Скачать торрент
Описание торрента

СообщениеДобавлено: 03 июл 2014 

Город потерянных детей / La cité des enfants perdus (1995) HDRip-AVC



Информация о фильме
Название: Город потерянных детей
Оригинальное название: La cité des enfants perdus
Год выхода: 1995
Жанр: фантастика, фэнтези, драма, приключения
Режиссер: Марк Каро, Жан-Пьер Жёне

В ролях: Рон Перлман, Жюдит Витте, Доминик Пинон, Даниэль Эмильфорк, Жан-Клод Дрейфус, Женевьев Бруне, Одиль Мале, Мирей Моссе, Серж Мерлен, Рюфюс...

О фильме: Недалеко от гавани пропитанного сыростью и окутанного туманом мрачного Города потерянных детей, в замке на берегу моря живет страшный ученый по имени Кранк, преждевременно постаревший из-за полной неспособности спать. По приказу Кранка его подручные-циклопы похищают детей и затаскивают в мрачную лабораторию, где злодей-ученый превращает их сны в свои собственные.

Но из-за того, что дети ужасно его боятся, он видит только их кошмары. В поисках пропавшего младшего брата в Город приходит цирковой силач Один. Ему помогает храбрая девятилетняя девочка Миетт и ее бригада маленьких бойцов сопротивления …



Страна: Франция, Германия, Испания
Продолжительность: 01:52:35
Перевод: Профессиональный (многоголосый закадровый) | Екатеринбург Арт

Файл
Кодек: x.264
Качество: HDRip-AVC
Видео: 960x512 (1,85:1), 23,976 fps, 1462 kbps, 0.124 bit/pixel
Звук: 48 kHz, AC3 Dolby Digital, 6 ch, ~384.00 kbps

&

Общее
Уникальный идентификатор : 192429977873448366916598172796162917061 (0x90C4AA68972C94F9B79A15018827C2C5)
Полное имя : D:La cité des enfants perdus.1995.HDRip-AVC.mkv
Формат : Matroska
Версия формата : Version 4 / Version 2
Размер файла : 1,45 Гбайт
Продолжительность : 1 ч. 52 м.
Общий поток : 1847 Кбит/сек
Название фильма : Город потерянных детей / La cite des enfants perdus (1995) HDRip-AVC rip by Rulya74
Дата кодирования : UTC 2014-07-03 05:02:22
Программа кодирования : mkvmerge v6.5.0 ('Isn't she lovely') built on Oct 20 2013 12:50:05
Библиотека кодирования : libebml v1.3.0 + libmatroska v1.4.1

Видео
Идентификатор : 1
Формат : AVC
Формат/Информация : Advanced Video Codec
Профиль формата : High@L4.1
Параметр CABAC формата : Да
Параметр ReFrames формата : 10 кадров
Идентификатор кодека : V_MPEG4/ISO/AVC
Продолжительность : 1 ч. 52 м.
Битрейт : 1462 Кбит/сек
Ширина : 960 пикселей
Высота : 512 пикселей
Соотношение сторон : 1,85:1
Режим частоты кадров : Постоянный
Частота кадров : 23,976 кадра/сек
Цветовое пространство : YUV
Субдискретизация насыщенности : 4:2:0
Битовая глубина : 8 бит
Тип развёртки : Прогрессивная
Бит/(Пиксели*Кадры) : 0.124
Размер потока : 1,12 Гбайт (77%)
Библиотека кодирования : x264 core 142 r2431 ac76440
Настройки программы : cabac=1 / ref=10 / deblock=1:-1:-1 / analyse=0x3:0x113 / me=umh / subme=11 / psy=1 / psy_rd=1.00:0.00 / mixed_ref=1 / me_range=48 / chroma_me=1 / trellis=2 / 8x8dct=1 / cqm=0 / deadzone=21,11 / fast_pskip=0 / chroma_qp_offset=-2 / threads=12 / lookahead_threads=1 / sliced_threads=0 / nr=0 / decimate=1 / interlaced=0 / bluray_compat=0 / constrained_intra=0 / bframes=5 / b_pyramid=2 / b_adapt=2 / b_bias=0 / direct=1 / weightb=1 / open_gop=0 / weightp=2 / keyint=240 / keyint_min=23 / scenecut=40 / intra_refresh=0 / rc_lookahead=40 / rc=2pass / mbtree=1 / bitrate=1462 / ratetol=1.0 / qcomp=0.60 / qpmin=0 / qpmax=69 / qpstep=4 / cplxblur=20.0 / qblur=0.5 / vbv_maxrate=62500 / vbv_bufsize=78125 / nal_hrd=none / filler=0 / ip_ratio=1.40 / aq=1:1.00
Default : Да
Forced : Нет

Аудио
Идентификатор : 2
Формат : AC-3
Формат/Информация : Audio Coding 3
Расширение режима : CM (complete main)
Параметр Endianness формата : Big
Идентификатор кодека : A_AC3
Продолжительность : 1 ч. 52 м.
Вид битрейта : Постоянный
Битрейт : 384 Кбит/сек
Каналы : 6 каналов
Расположение каналов : Front: L C R, Side: L R, LFE
Частота : 48,0 КГц
Битовая глубина : 16 бит
Метод сжатия : С потерями
Размер потока : 309 Мбайт (21%)
Заголовок : Профессиональный (многоголосый закадровый) | Екатеринбург Арт
Язык : Russian
Default : Да
Forced : Нет




   Похожие торренты   Торрент   Размер 
В этой теме нет новых непрочитанных сообщений. Город потерянных детей / La cité des enfants perdus (1995) BDRip 1080p | P, A

95 | 30

11.78 ГБ

В этой теме нет новых непрочитанных сообщений. Город потерянных детей / La cité des enfants perdus (1995) BDRip от HQCLUB

134 | 15

2.18 ГБ

В этой теме нет новых непрочитанных сообщений. Город потерянных детей / La Cite des enfants perdus (1995) BDRip от Koenig

22 | 0

1.45 ГБ

В этой теме нет новых непрочитанных сообщений. Город потерянных детей / La cité des enfants perdus (1995) BDRip-AVC | iPad | P,A

37 | 4

2.95 ГБ

В этой теме нет новых непрочитанных сообщений. Город потерянных детей / La cité des enfants perdus (1995) BDRip 720p

210 | 37

5.09 ГБ

В этой теме нет новых непрочитанных сообщений. Город потерянных детей / La cité des enfants perdus (1995) BD-Remux 1080p | P,A

27 | 7

23.48 ГБ

В этой теме нет новых непрочитанных сообщений. Город потерянных детей / La cité des enfants perdus (1995) BDRip-AVC | 60fps | P

48 | 5

3.48 ГБ




Вы не можете начинать темы
Вы не можете отвечать на сообщения
Вы не можете редактировать свои сообщения
Вы не можете удалять свои сообщения
Вы не можете добавлять вложения

Перейти:  
 Вход
ppkBB3cker v.2 © 2008-2014 @ PPK
[ Time : 0.072s | 17 Queries | GZIP : Off ]

cron