img image001 image001 image001 image001 image001 image001 image001 image001 image001 image001 image001 image001 image001 image001 image001 image001

Planets Sun Sun Sun
Статистика раздачи
Автор: Nickolas3434 | Размер: 1.47 ГБ | Добавлен: 04 июл 2014
Раздают: 414    Качают: 90
Скачать торрент
Скачать торрент
Описание торрента

СообщениеДобавлено: 04 июл 2014 

Информация о фильме
Название: Увидимся завтра
Оригинальное название: Ci vediamo domani
Год выхода: 2013
Жанр: Комедия, семейный
Режиссер: Андреа Дзаккарьелло
В ролях: Энрико Бриньяно, Берт Янг, Франческа Инауди, Рикки Тоньяцци, Джулия Салерно, Люка Авальяно

О фильме:
Марчелло Сантилли очень нужны деньги. Он узнает, что в одном из городов на юге Италии есть дом, всем жильцам которого уже за 80. Марчелло открывает рядом похоронное агентство и уже предвкушает получение скорой прибыли, однако проходит день за днем, а из жильцов дома никто не умирает…


Страна: Италия
Студия: Moviemax, Smile Production
Продолжительность: 01:43:18
Перевод: Профессиональный двухголосый (НТВ+)

Файл
Кодек: MPEG-4 AVC
Качество: HDTVRip (AVC)
Видео: 1850 Кбит/с, 1024x432, 25.000 кадр/с
Звук: Русский (АС3, 2 ch, 192 Кбит/с)

Семпл


Общее
Полное имя : Uvidimsja.zavtra.2013.x264.HDTVRip(AVC).MediaClub.mkv
Формат : Matroska
Версия формата : Version 2
Размер файла : 1,47 Гбайт
Продолжительность : 1 ч. 43 м.
Общий поток : 2043 Кбит/сек
Название фильма : MediaClub
Дата кодирования : UTC 2014-07-03 16:01:26
Программа кодирования : mkvmerge v5.4.0 ('Piper') built on Mar 10 2012 13:34:39
Библиотека кодирования : libebml v1.2.3 + libmatroska v1.3.0

Видео
Идентификатор : 1
Формат : AVC
Формат/Информация : Advanced Video Codec
Профиль формата : High@L4.1
Параметр CABAC формата : Да
Параметр ReFrames формата : 10 кадров
Идентификатор кодека : V_MPEG4/ISO/AVC
Продолжительность : 1 ч. 43 м.
Битрейт : 1850 Кбит/сек
Ширина : 1024 пикселя
Высота : 432 пикселя
Соотношение сторон : 2,40:1
Режим частоты кадров : Постоянный
Частота кадров : 25,000 кадров/сек
Цветовое пространство : YUV
Субдискретизация насыщенности : 4:2:0
Битовая глубина : 8 бит
Тип развёртки : Прогрессивная
Бит/(Пиксели*Кадры) : 0.167
Размер потока : 1,31 Гбайт (89%)
Библиотека кодирования : x264 core 125 r2208 d9d2288
Настройки программы : cabac=1 / ref=10 / deblock=1:-3:-2 / analyse=0x3:0x133 / me=umh / subme=10 / psy=1 / psy_rd=1.00:0.20 / mixed_ref=1 / me_range=48 / chroma_me=1 / trellis=2 / 8x8dct=1 / cqm=0 / deadzone=21,11 / fast_pskip=0 / chroma_qp_offset=-3 / threads=6 / lookahead_threads=1 / sliced_threads=0 / nr=0 / decimate=0 / interlaced=0 / bluray_compat=0 / constrained_intra=0 / bframes=8 / b_pyramid=2 / b_adapt=2 / b_bias=0 / direct=3 / weightb=1 / open_gop=0 / weightp=2 / keyint=250 / keyint_min=25 / scenecut=40 / intra_refresh=0 / rc=2pass / mbtree=0 / bitrate=1850 / ratetol=1.0 / qcomp=0.60 / qpmin=0 / qpmax=69 / qpstep=4 / cplxblur=20.0 / qblur=0.5 / ip_ratio=1.40 / pb_ratio=1.30 / aq=1:1.00
Default : Да
Forced : Нет

Аудио
Идентификатор : 2
Формат : AC-3
Формат/Информация : Audio Coding 3
Расширение режима : CM (complete main)
Параметр Endianness формата : Big
Идентификатор кодека : A_AC3
Продолжительность : 1 ч. 43 м.
Вид битрейта : Постоянный
Битрейт : 192 Кбит/сек
Каналы : 2 канала
Расположение каналов : Front: L R
Частота : 48,0 КГц
Битовая глубина : 16 бит
Метод сжатия : С потерями
Размер потока : 142 Мбайт (9%)
Язык : Russian
Default : Да
Forced : Нет


Релиз от:



   Похожие торренты   Торрент   Размер 
В этой теме нет новых непрочитанных сообщений. Увидимся завтра / Ci vediamo domani (2013) HDTVRip 720p от MediaClub | P2

210 | 39

2.49 ГБ

В этой теме нет новых непрочитанных сообщений. Увидимся завтра / Ci vediamo domani (2013) HDTVRip 1080p от MediaClub | P2

90 | 14

4.36 ГБ

В этой теме нет новых непрочитанных сообщений. Увидимся завтра / Ci vediamo domani (2013) DVDRip | НТВ+

12 | 2

1.46 ГБ

В этой теме нет новых непрочитанных сообщений. Вчера, сегодня, завтра / Ieri, Oggi, Domani (1963) DVDRip

24 | 5

1.37 ГБ

В этой теме нет новых непрочитанных сообщений. Вчера, сегодня, завтра / Ieri, oggi, domani (1963) HDRip от Kaztorrents | P

8 | 0

749.87 МБ

В этой теме нет новых непрочитанных сообщений. Сегодня я, а завтра ты / Today We Kill, Tomorrow We Die! / Oggi a me... domani a te! (1968) DVDRip от Lebanon

3 | 11

1.45 ГБ

В этой теме нет новых непрочитанных сообщений. Вчера, сегодня, завтра / Ieri, oggi, domani / Yesterday, Today and Tomorrow (1963) BDRip-AVC от 0ptimus

24 | 7

3.19 ГБ




Вы не можете начинать темы
Вы не можете отвечать на сообщения
Вы не можете редактировать свои сообщения
Вы не можете удалять свои сообщения
Вы не можете добавлять вложения

Перейти:  
 Вход
ppkBB3cker v.2 © 2008-2014 @ PPK
[ Time : 0.061s | 19 Queries | GZIP : Off ]

cron