img image001 image001 image001 image001 image001 image001 image001 image001 image001 image001 image001 image001 image001 image001 image001 image001

Planets Sun Sun Sun
Статистика раздачи
Автор: Nickolas3434 | Размер: 745.26 МБ | Добавлен: 04 июл 2014
Раздают: 33    Качают: 15
Скачать торрент
Скачать торрент
Описание торрента

СообщениеДобавлено: 04 июл 2014 

Страна: Франция
Производство: Canal+ [fr], Gimages, Les Productions du Champ Poirier, M6 Films, Sofinergie Films, Studio Images 5

Жанр: боевик, комедия, криминал
Год выпуска: 1998
Продолжительность: 01:36:15

Перевод: Профессиональный (многоголосый, закадровый)
Оригинальная аудиодорожка: нет
Cубтитры: нет

Режиссер: Грэм Гюи / Graham Guit

В ролях:
Ромен Дюри, Мельвиль Пупо, Элоди Буше, Айзек Шарри, Эли Каку, Элен Фийере, Патрик Лизана, Саша Бурдо, Ришар Шевалье, Клиффорд Энди...

Описание:
Профессиональный взломщик сейфов Арман, вышедший из тюрьмы и заставший любимую девушку в постели с другим мужчиной… Беззаботная Клэр, перед которой не устоит ни одна система безопасности… Охваченный депрессией Зеро, помешанный на автомобилях… Мелкий жулик Улисс, зацикленный на оружии… Они не должны были доверять друг другу и вместе идти на дело. И все же, сколотив «крутую банду», они замышляют совершить «самое плевое ограбление века». То, что им удалось похитить, превзошло все возможные ожидания. Одна беда — их добыча оказалась нужна слишком многим. Легкое дельце оборачивается большими неприятностями…





Исходник: DVD5 R5
Тип релиза: DVDRip
Контейнер: AVI

Видео: 704x304 (2,35:1), 25,000 fps, XviD ~ 945 kbps avg, 0.177 bit/pixel
Аудио: 48 kHz, MP3 2.0, 128 kbps

Раздача от:
Общее
Полное имя : Pohititeli.1998.DVDRip-745_[New-team]_by_AVP_Studio.avi
Формат : AVI
Формат/Информация : Audio Video Interleave
Размер файла : 745 Мбайт
Продолжительность : 1 ч. 36 м.
Общий поток : 1082 Кбит/сек
Программа кодирования : VirtualDubModRus 1.5.10.2 (build 2542/release)
Библиотека кодирования : VirtualDubMod build 2542/release

Видео
Идентификатор : 0
Формат : MPEG-4 Visual
Профиль формата : Advanced Simple@L5
Параметр BVOP формата : 1
Параметр QPel формата : Нет
Параметр GMC формата : Без точки перехода
Параметр матрицы формата : Выборочная
Идентификатор кодека : XVID
Идентификатор кодека/Подсказка : XviD
Продолжительность : 1 ч. 36 м.
Битрейт : 945 Кбит/сек
Ширина : 704 пикселя
Высота : 304 пикселя
Соотношение сторон : 2,35:1
Частота кадров : 25,000 кадров/сек
Цветовое пространство : YUV
Субдискретизация насыщенности : 4:2:0
Битовая глубина : 8 бит
Тип развёртки : Прогрессивная
Метод сжатия : С потерями
Бит/(Пиксели*Кадры) : 0.177
Размер потока : 650 Мбайт (87%)
Библиотека кодирования : XviD 73

Аудио
Идентификатор : 1
Формат : MPEG Audio
Версия формата : Version 1
Профиль формата : Layer 3
Идентификатор кодека : 55
Идентификатор кодека/Подсказка : MP3
Продолжительность : 1 ч. 36 м.
Вид битрейта : Постоянный
Битрейт : 128 Кбит/сек
Каналы : 2 канала
Частота : 48,0 КГц
Метод сжатия : С потерями
Размер потока : 88,1 Мбайт (12%)
Выравнивание : Соединение по промежуткам
Продолжительность промежутка : 40 мс. (1,00 видеокадр)
Время предзагрузки промежутка : 504 мс.
Библиотека кодирования : LAME3.99r
Настройки программы : -m s -V 4 -q 2 -lowpass 17 -b 128





   Похожие торренты   Торрент   Размер 
В этой теме нет новых непрочитанных сообщений. Похитители / Les Kidnappeurs (1998) DVDRip-AVC от New-Team | P

40 | 12

1.46 ГБ

В этой теме нет новых непрочитанных сообщений. Похитители / Les Kidnappeurs (1998) DVDRip от New-Team | P

62 | 27

1.46 ГБ

В этой теме нет новых непрочитанных сообщений. Похитители книг (2003) DVDRip от New-Team

1 | 3

744.75 МБ

В этой теме нет новых непрочитанных сообщений. Похитители книг (2003) DVDRip от New-Team

5 | 5

1.46 ГБ

В этой теме нет новых непрочитанных сообщений. Похитители книг (2003) DVDRip-AVC от New-Team

17 | 3

1.45 ГБ

В этой теме нет новых непрочитанных сообщений. Похитители прошлого / The Time Shifters (1999) DVDRip-AVC | P2

0 | 2

2.62 ГБ

В этой теме нет новых непрочитанных сообщений. Похитители прошлого / The Time Shifters (1999) DVDRip от Scarabey | P

652 | 388

1.44 ГБ




Вы не можете начинать темы
Вы не можете отвечать на сообщения
Вы не можете редактировать свои сообщения
Вы не можете удалять свои сообщения
Вы не можете добавлять вложения

Перейти:  
 Вход
ppkBB3cker v.2 © 2008-2014 @ PPK
[ Time : 0.036s | 16 Queries | GZIP : Off ]

cron