img image001 image001 image001 image001 image001 image001 image001 image001 image001 image001 image001 image001 image001 image001 image001 image001

Planets Sun Sun Sun
Статистика раздачи
Автор: Nickolas3434 | Размер: 1.46 ГБ | Добавлен: 04 июл 2014
Раздают: 164    Качают: 49
Скачать торрент
Скачать торрент
Описание торрента

СообщениеДобавлено: 04 июл 2014 

Информация о фильме
Название: Ты будешь чтить свою мать и свою мать
Оригинальное название: Tu honoreras ta mère et ta mère
Год выхода: 2012
Жанр: Комедия
Режиссер: Брижит Роюан
В ролях: Николь Гарсия, Эрик Каравака, Патрик Милле, Микаэль Абитбуль, Гаспар Ульель, Элиза Товати, Сандрин Дюма, Сара Габриэль, Хелен Райс, Эмманюэль Рива

О фильме:
История о том, как один молодой парень очень долгое время не мог решиться на шаг к семейной жизни и решает навсегда остаться около своей матери, хоть все его многочисленные друзья давно уже живут в браке.



Страна: Франция
Студия: Agat Films & Cie, Boo Productions, France 2 Cinéma, Pinou Film
Продолжительность: 01:31:51
Перевод: Профессиональный двухголосый (НТВ+)

Файл
Кодек: XviD
Качество: HDTVRip
Видео: 1818 Кбит/с, 720x384, 25.000 кадр/с
Звук: Русский (АС3, 6 ch, 448 Кбит/с)

Семпл


Общее
Полное имя : Ty.budesh.chtit.svoju.mat.i.svoju.mat.2012.HDTVRip.MediaClub.avi
Формат : AVI
Формат/Информация : Audio Video Interleave
Размер файла : 1,46 Гбайт
Продолжительность : 1 ч. 31 м.
Общий поток : 2276 Кбит/сек
Название фильма : MediaClub
Программа кодирования : VirtualDubMod 1.5.10.2 (build 2540/release)
Библиотека кодирования : VirtualDubMod build 2540/release

Видео
Идентификатор : 0
Формат : MPEG-4 Visual
Профиль формата : Advanced Simple@L5
Параметр BVOP формата : 2
Параметр QPel формата : Нет
Параметр GMC формата : Без точки перехода
Параметр матрицы формата : Default (MPEG)
Идентификатор кодека : XVID
Идентификатор кодека/Подсказка : XviD
Продолжительность : 1 ч. 31 м.
Битрейт : 1818 Кбит/сек
Ширина : 720 пикселей
Высота : 384 пикселя
Соотношение сторон : 1,85:1
Частота кадров : 25,000 кадров/сек
Цветовое пространство : YUV
Субдискретизация насыщенности : 4:2:0
Битовая глубина : 8 бит
Тип развёртки : Прогрессивная
Метод сжатия : С потерями
Бит/(Пиксели*Кадры) : 0.263
Размер потока : 1,17 Гбайт (80%)
Библиотека кодирования : XviD 65

Аудио
Идентификатор : 1
Формат : AC-3
Формат/Информация : Audio Coding 3
Расширение режима : CM (complete main)
Параметр Endianness формата : Big
Идентификатор кодека : 2000
Продолжительность : 1 ч. 31 м.
Вид битрейта : Постоянный
Битрейт : 448 Кбит/сек
Каналы : 6 каналов
Расположение каналов : Front: L C R, Side: L R, LFE
Частота : 48,0 КГц
Битовая глубина : 16 бит
Метод сжатия : С потерями
Размер потока : 294 Мбайт (20%)
Выравнивание : Разделение по промежуткам
Продолжительность промежутка : 40 мс. (1,00 видеокадр)
Время предзагрузки промежутка : 500 мс.


Релиз от:



   Похожие торренты   Торрент   Размер 
В этой теме нет новых непрочитанных сообщений. Ты будешь чтить свою мать и свою мать / Tu honoreras ta mère et ta mère (2012) HDTVRip 1080p от MediaClub | P2

39 | 16

4.65 ГБ

В этой теме нет новых непрочитанных сообщений. Ты будешь чтить свою мать и свою мать / Tu honoreras ta mère et ta mère (2012) HDTVRip 720p от MediaClub | P2

75 | 35

2.6 ГБ

В этой теме нет новых непрочитанных сообщений. Ты будешь чтить свою мать и свою мать / Tu honoreras ta mère et ta mère (2012) HDTVRip-AVC от MediaClub | P2

45 | 33

1.75 ГБ

В этой теме нет новых непрочитанных сообщений. Ты будешь чтить свою мать и свою мать / Tu honoreras ta mère et ta mère (2012) SATRip от MediaClub | P2

154 | 46

1.36 ГБ

В этой теме нет новых непрочитанных сообщений. Моя мать / Ma mère (2004) DVDRip

12 | 5

1.45 ГБ

В этой теме нет новых непрочитанных сообщений. Моя мать / Ma mère (2004) DVDRip-AVC от Temperest

100 | 46

1.84 ГБ

В этой теме нет новых непрочитанных сообщений. Моя мать / Ma mere ( Кристоф Оноре / Christophe Honore) [2004, драма, арт-хаус, DVDRip] DVO / Драмы

8 | 1

1.45 ГБ




Вы не можете начинать темы
Вы не можете отвечать на сообщения
Вы не можете редактировать свои сообщения
Вы не можете удалять свои сообщения
Вы не можете добавлять вложения

Перейти:  
 Вход
ppkBB3cker v.2 © 2008-2014 @ PPK
[ Time : 0.055s | 18 Queries | GZIP : Off ]

cron