img image001 image001 image001 image001 image001 image001 image001 image001 image001 image001 image001 image001 image001 image001 image001 image001

Planets Sun Sun Sun
Статистика раздачи
Автор: Nickolas3434 | Размер: 3.61 ГБ | Добавлен: 19 июл 2014
Раздают: 23    Качают: 18
Скачать торрент
Скачать торрент
Описание торрента

СообщениеДобавлено: 19 июл 2014 

Название: Немое кино
Оригинальное название: Silent Movie
Год выпуска: 1976
Жанр: Комедия
Выпущено: США, 20th Century Fox
Режиссер: Мэл Брукс
В ролях: Мэл Брукс, Марти Фелдмэн, Дом ДеЛуис, Бернадетт Питерс, Лайза Миннелли, Сид Сизар, Харольд Гулд, Энн Бэнкрофт, Хэрри Риц, Чарли Кэллас, Марсель Марсо, Хенни Янгмэн, Лайэм Данн, Пол Ньюман

О фильме: Звезда комедийного режиссёра Мэла Фанна закатилась, но он всё ещё лелеет мечты вернуться в Голливуд. Его главный козырь – проект немой комедии, которая, как он думает, станет настоящей бомбой современного кино. В своей затее Фанну удается убедить продюсера небольшой киностудии, но есть два условия – он должен собрать для фильма кинозвёзд и успеть снять ленту раньше, чем студию проглотит одна злодейская компания...

Качество: BDRip 720p
Размер: 3.61 ГБ
Продолжительность: 01:27:22

Видео: MPEG-4 AVC, 5527 Кбит/с, 1280x688
Аудио 1: русский, 48 kHz, AC3, 2 ch, 192 kbps avg, [Авторский, Леонид Володарский]
Аудио 2: русский, 48 kHz, AC3, 2 ch, 192 kbps avg, [Авторский, Алексей Михалёв]
Субтитры 1: русские (вариант 1)
Субтитры 2: русские (вариант 2)

Авторы озвучивают свои субтитры.

Исходник: Наталья Че (рутрекер)



Золотой глобус, 1977 год
Номинации (4):
Лучшая мужская роль (комедия или мюзикл) (Мэл Брукс)
Лучший фильм (комедия или мюзикл)
Лучшая женская роль второго плана (Бернадетт Питерс)
Лучшая мужская роль второго плана (Марти Фелдман)
Общее
Уникальный идентификатор : 248050193747034941536331607785240243563 (0xBA9CBAC612918EDAB5770A56797FAD6B)
Полное имя : D:VideoNemoe kino.1976.BDRip.720p.mkv
Формат : Matroska
Версия формата : Version 4 / Version 2
Размер файла : 3,61 Гбайт
Продолжительность : 1 ч. 27 м.
Общий поток : 5912 Кбит/сек
Дата кодирования : UTC 2014-07-19 06:53:17
Программа кодирования : mkvmerge v6.9.1 ('Blue Panther') 64bit built on Apr 18 2014 18:23:38
Библиотека кодирования : libebml v1.3.0 + libmatroska v1.4.1

Видео
Идентификатор : 1
Формат : AVC
Формат/Информация : Advanced Video Codec
Профиль формата : High@L4.1
Параметр CABAC формата : Да
Параметр ReFrames формата : 8 кадров
Идентификатор кодека : V_MPEG4/ISO/AVC
Продолжительность : 1 ч. 27 м.
Битрейт : 5527 Кбит/сек
Ширина : 1280 пикселей
Высота : 688 пикселей
Соотношение сторон : 1,85:1
Режим частоты кадров : Постоянный
Частота кадров : 23,976 кадра/сек
Цветовое пространство : YUV
Субдискретизация насыщенности : 4:2:0
Битовая глубина : 8 бит
Тип развёртки : Прогрессивная
Бит/(Пиксели*Кадры) : 0.262
Размер потока : 3,30 Гбайт (92%)
Библиотека кодирования : x264 core 68 r1183M f21daff
Настройки программы : cabac=1 / ref=8 / deblock=1:-3:-3 / analyse=0x3:0x113 / me=umh / subme=9 / psy_rd=1.2:0.2 / mixed_ref=1 / me_range=32 / chroma_me=1 / trellis=2 / 8x8dct=1 / cqm=0 / deadzone=21,11 / chroma_qp_offset=-3 / threads=12 / nr=0 / decimate=0 / mbaff=0 / bframes=3 / b_pyramid=1 / b_adapt=2 / b_bias=0 / direct=1 / wpredb=1 / keyint=250 / keyint_min=25 / scenecut=40 / rc=2pass / bitrate=5527 / ratetol=1.0 / qcomp=0.60 / qpmin=10 / qpmax=51 / qpstep=4 / cplxblur=20.0 / qblur=0.5 / vbv_maxrate=50000 / vbv_bufsize=50000 / ip_ratio=1.40 / pb_ratio=1.30 / aq=1:1.00
Язык : English
Default : Да
Forced : Нет

Аудио #1
Идентификатор : 2
Формат : AC-3
Формат/Информация : Audio Coding 3
Расширение режима : CM (complete main)
Параметр Endianness формата : Big
Идентификатор кодека : A_AC3
Продолжительность : 1 ч. 27 м.
Вид битрейта : Постоянный
Битрейт : 192 Кбит/сек
Каналы : 2 канала
Расположение каналов : Front: L R
Частота : 48,0 КГц
Битовая глубина : 16 бит
Метод сжатия : С потерями
Размер потока : 120 Мбайт (3%)
Заголовок : AVO (Леонид Володарский)
Язык : Russian
Default : Да
Forced : Нет

Аудио #2
Идентификатор : 3
Формат : AC-3
Формат/Информация : Audio Coding 3
Расширение режима : CM (complete main)
Параметр Endianness формата : Big
Идентификатор кодека : A_AC3
Продолжительность : 1 ч. 27 м.
Вид битрейта : Постоянный
Битрейт : 192 Кбит/сек
Каналы : 2 канала
Расположение каналов : Front: L R
Частота : 48,0 КГц
Битовая глубина : 16 бит
Метод сжатия : С потерями
Размер потока : 120 Мбайт (3%)
Заголовок : AVO (Алексей Михалёв)
Язык : Russian
Default : Нет
Forced : Нет

Текст #1
Идентификатор : 4
Формат : UTF-8
Идентификатор кодека : S_TEXT/UTF8
Идентификатор кодека/Информация : UTF-8 Plain Text
Заголовок : русский (вариант 1)
Язык : Russian
Default : Нет
Forced : Нет

Текст #2
Идентификатор : 5
Формат : UTF-8
Идентификатор кодека : S_TEXT/UTF8
Идентификатор кодека/Информация : UTF-8 Plain Text
Заголовок : русский (вариант 2)
Язык : Russian
Default : Нет
Forced : Нет




   Похожие торренты   Торрент   Размер 
В этой теме нет новых непрочитанных сообщений. Немое кино / Silent Movie (1976) DVDRip

11 | 5

1.41 ГБ

В этой теме нет новых непрочитанных сообщений. Необычная семья / Необыкновенная семейка / No Ordinary Family [S01] (2010-2011) WEB-DL 720p | Немое Кино

0 | 2

28.3 ГБ

В этой теме нет новых непрочитанных сообщений. Последний приказ / The Last Command (1928) DVDRip | Немое кино

0 | 2

1.66 ГБ

В этой теме нет новых непрочитанных сообщений. Несмонтированный фильм / Кино есть кино / Rough Cut / A Movie is a Movie / Yeong-hwa-neun yeong-hwa-da (2008) DVDRip от Scarabey | L2

14 | 1

1.45 ГБ

В этой теме нет новых непрочитанных сообщений. Несмонтированный фильм / Кино есть кино / Rough Cut / A Movie is a Movie / Yeong-hwa-neun yeong-hwa-da (2008) DVDRip от Scarabey | L2

5 | 1

743.07 МБ

В этой теме нет новых непрочитанных сообщений. Необычная семья / Необыкновенная семейка / No Ordinary Family [S01] (2010-2011) HDTVRip | Немое Кино

2 | 2

7.75 ГБ

В этой теме нет новых непрочитанных сообщений. Экстремальное кино / Extreme Movie (2008) BDRip 720p | P2

6 | 0

3.93 ГБ




Вы не можете начинать темы
Вы не можете отвечать на сообщения
Вы не можете редактировать свои сообщения
Вы не можете удалять свои сообщения
Вы не можете добавлять вложения

Перейти:  
cron
 Вход
ppkBB3cker v.2 © 2008-2014 @ PPK
[ Time : 0.029s | 19 Queries | GZIP : Off ]

cron