img image001 image001 image001 image001 image001 image001 image001 image001 image001 image001 image001 image001 image001 image001 image001 image001

Planets Sun Sun Sun
Статистика раздачи
Автор: Nickolas3434 | Размер: 13.43 ГБ | Добавлен: 22 июл 2014
Раздают: 25    Качают: 56
Скачать торрент
Скачать торрент
Описание торрента

СообщениеДобавлено: 22 июл 2014 

Информация о фильме
Название: Хранители
Оригинальное название: Watchmen
Год выхода: 2009
Жанр: фантастика, боевик, детектив
Режиссер: Зак Снайдер
В ролях: Патрик Уилсон, Мэттью Гуд, Малин Акерман, Джеки Эрл Хейли, Билли Крудап, Джеффри Дин Морган, Карла Гуджино, Мэтт Фрюэр, Стивен МакХэтти, Лаура Меннелл

О фильме:
Действие картины разворачивается в параллельной реальности, в Америке 1985 года. В этом мире супергерои стали частью повседневной жизни общества, а Часы Судного Дня, застыв в пяти минутах от полуночи, отсчитывают время до столкновения ведущих мировых держав. После убийства одного из своих прежних коллег Роршах — супергерой, никогда не снимающий маски, — полон решимости свершить суд Линча.

Он начинает расследование заговора, призванного уничтожить или дискредитировать всех супергероев прошлого и настоящего. Он собирает своих соратников — отставной легион борцов с преступностью, но лишь один из них обладает подлинной силой. Постепенно Роршах осознает пугающий масштаб заговора, связанного с общим прошлым героев и сулящего катастрофические последствия в будущем. Они хранят наш покой, но кто охранит нас от Хранителей?


Страна: США
Студия: DC Comics, Lawrence Gordon Productions, Legendary Pictures, Paramount Pictures, Warner Bros. Pictures Co.
Продолжительность: 162 мин. / 02:42
Перевод: полное дублирование
Перевод бонусов: субтитры

Файл
Кодек: MPEG2
Качество: 2 х DVD9
Видео: PAL 16:9 (720x576@1024x576) VBR 4742 Kbps, 25.000 fps
Звук: Dolby AC3, 6 ch, 48.0 KHz, 448 Kbps русский; украинский; английский
Субтитры: русские, украинские, английские
Бонус-Диск: Феномен: комиксы изменившие понятие комикса; Реальные супергерои; Видеожурнал; Вирусное видео; Видеоклип "Desolation Row"

Коллекционное издание из 2 дисков от "Юниверсал Пикчерс Рус"
General
Complete name : E:Hraniteli 2 DVDDVD1VTS_04_1.VOB
Format : MPEG-PS
File size : 1 024 MiB
Duration : 23mn 3s
Overall bit rate mode : Variable
Overall bit rate : 6 209 Kbps

Video
ID : 224 (0xE0)
Format : MPEG Video
Format version : Version 2
Format profile : Main@Main
Format settings, BVOP : No
Format settings, Matrix : Custom
Format settings, GOP : Variable
Duration : 23mn 2s
Bit rate mode : Variable
Bit rate : 4 742 Kbps
Maximum bit rate : 9 800 Kbps
Width : 720 pixels
Height : 576 pixels
Display aspect ratio : 16:9
Frame rate : 25.000 fps
Standard : Component
Color space : YUV
Chroma subsampling : 4:2:0
Bit depth : 8 bits
Scan type : Progressive
Scan order : Top Field First
Compression mode : Lossy
Bits/(Pixel*Frame) : 0.457
Time code of first frame : 01:00:00:00
Time code source : Group of pictures header
Stream size : 782 MiB (76%)
Color primaries : BT.601 PAL
Transfer characteristics : BT.470 System B, BT.470 System G
Matrix coefficients : BT.601

Audio #1
ID : 189 (0xBD)-128 (0x80)
Format : AC-3
Format/Info : Audio Coding 3
Mode extension : CM (complete main)
Format settings, Endianness : Big
Muxing mode : DVD-Video
Duration : 23mn 2s
Bit rate mode : Constant
Bit rate : 448 Kbps
Channel(s) : 6 channels
Channel positions : Front: L C R, Side: L R, LFE
Sampling rate : 48.0 KHz
Bit depth : 16 bits
Compression mode : Lossy
Stream size : 73.8 MiB (7%)

Audio #2
ID : 189 (0xBD)-129 (0x81)
Format : AC-3
Format/Info : Audio Coding 3
Mode extension : CM (complete main)
Format settings, Endianness : Big
Muxing mode : DVD-Video
Duration : 23mn 2s
Bit rate mode : Constant
Bit rate : 448 Kbps
Channel(s) : 6 channels
Channel positions : Front: L C R, Side: L R, LFE
Sampling rate : 48.0 KHz
Bit depth : 16 bits
Compression mode : Lossy
Stream size : 73.8 MiB (7%)

Audio #3
ID : 189 (0xBD)-130 (0x82)
Format : AC-3
Format/Info : Audio Coding 3
Mode extension : CM (complete main)
Format settings, Endianness : Big
Muxing mode : DVD-Video
Duration : 23mn 2s
Bit rate mode : Constant
Bit rate : 448 Kbps
Channel(s) : 6 channels
Channel positions : Front: L C R, Side: L R, LFE
Sampling rate : 48.0 KHz
Bit depth : 16 bits
Compression mode : Lossy
Stream size : 73.8 MiB (7%)

Text #1
ID : 189 (0xBD)-32 (0x20)
Format : RLE
Format/Info : Run-length encoding
Muxing mode : DVD-Video
Duration : 23mn 0s

Text #2
ID : 189 (0xBD)-33 (0x21)
Format : RLE
Format/Info : Run-length encoding
Muxing mode : DVD-Video
Duration : 23mn 0s

Text #3
ID : 189 (0xBD)-34 (0x22)
Format : RLE
Format/Info : Run-length encoding
Muxing mode : DVD-Video
Duration : 23mn 3s

Menu




   Похожие торренты   Торрент   Размер 
В этой теме нет новых непрочитанных сообщений. Геймер / Gamer (2009) 2хDVD9 | D | Коллекционное издание

16 | 8

14.21 ГБ

В этой теме нет новых непрочитанных сообщений. Хранители / Watchmen (2009) HDRip от ImperiaFilm | КПК | Театральная версия

71 | 8

554 МБ

В этой теме нет новых непрочитанных сообщений. Хранители / Watchmen (2009) BDRip от HQ-VIDEO | Режиссерская версия | D

149 | 24

5.41 ГБ

В этой теме нет новых непрочитанных сообщений. Хранители / Watchmen (2009) BDRip 720p | Максимальная версия | 60 FPS

247 | 97

15.09 ГБ

В этой теме нет новых непрочитанных сообщений. Хранители / Watchmen (2009) UHD BDRemux 2160p | 4K | HDR | D, P, A | Максимальная версия

7 | 4

103.05 ГБ

В этой теме нет новых непрочитанных сообщений. Хранители / Watchmen (2009) BDRip 1080p | Театральная версия

518 | 115

9.84 ГБ

В этой теме нет новых непрочитанных сообщений. Хранители / Watchmen (2009) BDRip 720p от Leonardo | Ultimate Cut | D

429 | 34

6.61 ГБ




Вы не можете начинать темы
Вы не можете отвечать на сообщения
Вы не можете редактировать свои сообщения
Вы не можете удалять свои сообщения
Вы не можете добавлять вложения

Перейти:  
 Вход
ppkBB3cker v.2 © 2008-2014 @ PPK
[ Time : 0.022s | 15 Queries | GZIP : Off ]

cron