img image001 image001 image001 image001 image001 image001 image001 image001 image001 image001 image001 image001 image001 image001 image001 image001

Planets Sun Sun Sun
Статистика раздачи
Автор: Nickolas3434 | Размер: 1.47 ГБ | Добавлен: 23 июл 2014
Раздают: 118    Качают: 20
Скачать торрент
Скачать торрент
Описание торрента

СообщениеДобавлено: 23 июл 2014 

Информация о фильме
Название: Драйв / Непобедимый
Оригинальное название: Drive
Год выхода: 1997
Жанр: фантастика, боевик, комедия, приключения
Режиссер: Стив Вонг / Steve Wang
В ролях: Марк Дакаскос, Кадим Хардисон, Джон Пайпер-Фергюсон, Бриттани Мерфи, Трейси Уолтер, Джеймс Шигета, Масая Като, Дом Магуили, Рон Йуан, Клив Розенгрен

О фильме:
Сан-Франциско. Недалекое будущее. Грузовое судно возвращается из Гонконга с загадочным пассажиром по имени Тоби Уонг. Он сбежал от подпольной корпорации Леунга в поисках свободы на Западе. Однако Тоби попадает в лапы банды хладнокровного Вика Мэдисона. Вырвавшись из банды Мэдисона, он берет в заложники пьяницу Малика Броунди и едет в Лос-Анджелес. В дороге они становятся приятелями, и Тоби даже обучает Малика боевым искусствам. Однажды Малик узнает, что у Тоби имплантирован биомодуль, дающий ему силу и скорость. Это сделал мистер Лау, глава корпорации Леунг, который хочет вернуть беглеца во что бы то ни стало. Сбежавшую парочку преследует и банда Вика Мэдисона и новая жертва мистер Лау с более совершенным биомодулем…


Страна: США
Продолжительность: 01:52:45
Перевод: Профессиональный (многоголосый, закадровый), Авторский (одноголосый закадровый) Василий Горчаков

Файл
Кодек: XviD
Качество: DVDRip с |DVD9|
Видео: 688x288, 25.000 fps, XviD build 73 ~1462 kbps
Аудио 1: 48.0 kHz, AC3, 2 ch, 192 kbps..........Профессиональный (многоголосый, закадровый)
Аудио 2: 48.0 kHz, AC3, 2 ch, 192 kbps..........Авторский (одноголосый закадровый) Василий Горчаков
Общее
Полное имя : Draiv.1997.DVDRip.avi
Формат : AVI
Формат/Информация : Audio Video Interleave
Размер файла : 1,47 Гбайт
Продолжительность : 1 ч. 52 м.
Общий поток : 1860 Кбит/сек
Программа кодирования : VirtualDubMod 1.5.10.2 (build 2542/release)
Библиотека кодирования : VirtualDubMod build 2542/release

Видео
Идентификатор : 0
Формат : MPEG-4 Visual
Профиль формата : Advanced Simple@L5
Параметр BVOP формата : 1
Параметр QPel формата : Нет
Параметр GMC формата : Без точки перехода
Параметр матрицы формата : Выборочная
Идентификатор кодека : XVID
Идентификатор кодека/Подсказка : XviD
Продолжительность : 1 ч. 52 м.
Битрейт : 1462 Кбит/сек
Ширина : 688 пикс.
Высота : 288 пикс.
Соотношение сторон : 2,35:1
Частота кадров : 25,000 кадр/сек
Цветовое пространство : YUV
Подвыборка цветности : 4:2:0
Битовая глубина : 8 бит
Тип развёртки : Прогрессивная
Метод сжатия : С потерями
Бит/(Пиксели*Кадры) : 0.295
Размер потока : 1,15 Гбайт (79%)
Библиотека кодирования : XviD 73

Аудио #1
Идентификатор : 1
Формат : AC-3
Формат/Информация : Audio Coding 3
Расширение режима : CM (complete main)
Идентификатор кодека : 2000
Продолжительность : 1 ч. 52 м.
Вид битрейта : Постоянный
Битрейт : 192 Кбит/сек
Канал(ы) : 2 канала(ов)
Расположение каналов : Front: L R
Частота : 48,0 КГц
Битовая глубина : 16 бит
Метод сжатия : С потерями
Размер потока : 155 Мбайт (10%)
Выравнивание : Разделение по промежуткам
Продолжительность промежутка : 40 мс. (1,00 видеокадр)
Время предзагрузки промежутка : 500 ms

Аудио #2
Идентификатор : 2
Формат : AC-3
Формат/Информация : Audio Coding 3
Расширение режима : CM (complete main)
Идентификатор кодека : 2000
Продолжительность : 1 ч. 52 м.
Вид битрейта : Постоянный
Битрейт : 192 Кбит/сек
Канал(ы) : 2 канала(ов)
Расположение каналов : Front: L R
Частота : 48,0 КГц
Битовая глубина : 16 бит
Метод сжатия : С потерями
Размер потока : 155 Мбайт (10%)
Выравнивание : Разделение по промежуткам
Продолжительность промежутка : 40 мс. (1,00 видеокадр)
Время предзагрузки промежутка : 500 ms


Релиз от: Leon-masl



   Похожие торренты   Торрент   Размер 
В этой теме нет новых непрочитанных сообщений. Драйв / Непобедимый [Театральная версия] / Drive [Theatrical Cut] (Стив Ванг) [1997, фантастика, боевик, комедия, приключения, WEB-DLRip] MVO / Боевики /Action

6 | 0

746.07 МБ

В этой теме нет новых непрочитанных сообщений. Двойник / The Assignment (1997) DVDRip от Leon-masl | P, A

1 | 1

1.47 ГБ

В этой теме нет новых непрочитанных сообщений. Драйв / Drive (1997) DVDRip-AVC | P, A | Режиссерская версия

131 | 13

2.91 ГБ

В этой теме нет новых непрочитанных сообщений. Крутые Стволы / Mean Guns (1997) DVDRip от Leon-masl | P2 | Director's cut

111 | 30

1.46 ГБ

В этой теме нет новых непрочитанных сообщений. 187 / One Eight Seven (1997) HDRip от Leon-masl | P2, A

83 | 20

1.47 ГБ

В этой теме нет новых непрочитанных сообщений. Гангстер / Hoodlum (1997) WEB-DLRip от Leon-masl | A, P

63 | 5

2.18 ГБ

В этой теме нет новых непрочитанных сообщений. Гангстер / Hoodlum (1997) HDRip от Leon-masl | P, А

200 | 43

1.47 ГБ




Вы не можете начинать темы
Вы не можете отвечать на сообщения
Вы не можете редактировать свои сообщения
Вы не можете удалять свои сообщения
Вы не можете добавлять вложения

Перейти:  
 Вход
ppkBB3cker v.2 © 2008-2014 @ PPK
[ Time : 0.037s | 21 Queries | GZIP : Off ]

cron