img image001 image001 image001 image001 image001 image001 image001 image001 image001 image001 image001 image001 image001 image001 image001 image001

Planets Sun Sun Sun
Статистика раздачи
Автор: Nickolas3434 | Размер: 4.17 ГБ | Добавлен: 26 июл 2014
Раздают: 257    Качают: 30
Скачать торрент
Скачать торрент
Описание торрента

СообщениеДобавлено: 26 июл 2014 

Информация о фильме
Название: Ной
Оригинальное название: Noah
Год выпуска: 2014
Жанр: Драма, приключения
Режиссер: Даррен Аронофски
В ролях: Расселл Кроу, Дженнифер Коннелли, Рэй Уинстон, Энтони Хопкинс, Эмма Уотсон, Логан Лерман, Дуглас Бут, Ник Нолти, Марк Марголис, Кевин Дюран, Лео МакХью Кэрролл, Мартон Чокаш, Финн Уиттрок, Мэдисон Девенпорт, Гэвин Касалежно, Нолан Гросс, Скайлар Бурк, Дакота Гойо, Ариан Райнхарт, Адам Гриффит

Описание: В этом фильме, главная роль в котором досталась Расселу Кроу, зрителю дается возможность, вместе с главными героями пережить библейскую историю о мужественном и мудром человеке, по имени Ной. Мир по уши погряз в грехах и насилии, Господь решил очистить Землю, оставив только избранных. Грядет всемирный потоп, наш герой начинает строить большой ковчег, но никто ему не верит, больше того, многие считают Нойа, просто сумасшедшим. Его уже не остановить, он должен выполнить важную миссию, после которой мир возродится заново. Собрав родных и близких, множество зверей и птиц, он отправится в опасное путешествие на огромном ковчеге..



Выпущено: США / Disruption Entertainment, New Regency Pictures, Protozoa Pictures
Продолжительность: 02:17:53
Перевод: Дублированный, авторский

Файл
Видео: MPEG-4 AVC, 2800 Кбит/с, 1024x554, 23.976 кадр/с
Аудио #1: Русский (AC3, 6 ch, 448 Кбит/с) / Дублированный (Blu-ray CEE)
Аудио #2: Русский (AC3, 6 ch, 448 Кбит/с) / Авторский одноголосый (Есарев)
Аудио #3: Украинский (AC3, 2 ch, 192 Кбит/с) / Дублированный (iTunes)
Аудио #4: Английский (AC3, 6 ch, 448 Кбит/с)
Субтитры: Русские (форсированные,полные), украинские (полные), английские (Colored, SDH, Full)

Семпл




x264 [info]: frame I:1472  Avg QP:15.58  size:109341
x264 [info]: frame P:44577 Avg QP:18.76  size: 29349
x264 [info]: frame B:152308 Avg QP:20.33  size:  9330
x264 [info]: consecutive B-frames:  3.3%  3.7% 11.0% 13.2% 15.7% 34.7%  7.3%  2.6%  2.0%  1.7%  1.9%  1.8%  1.2%
x264 [info]: mb I  I16..4: 21.1% 55.3% 23.6%
x264 [info]: mb P  I16..4:  0.7% 10.1%  1.3%  P16..4: 33.1% 37.2% 12.9%  0.0%  0.0%    skip: 4.6%
x264 [info]: mb B  I16..4:  0.1%  0.9%  0.1%  B16..8: 36.7% 18.6%  2.8%  direct: 5.6%  skip:35.2%  L0:41.3% L1:46.3% BI:12.3%
x264 [info]: 8x8 transform intra:78.3% inter:56.7%
x264 [info]: direct mvs  spatial:98.3% temporal:1.7%
x264 [info]: coded y,uvDC,uvAC intra: 95.5% 78.8% 51.0% inter: 27.0% 18.0% 5.9%
x264 [info]: i16 v,h,dc,p:  4%  5% 38% 53%
x264 [info]: i8 v,h,dc,ddl,ddr,vr,hd,vl,hu:  7%  7%  8% 10% 15% 13% 14% 12% 14%
x264 [info]: i4 v,h,dc,ddl,ddr,vr,hd,vl,hu:  8%  6%  5% 10% 16% 14% 15% 12% 14%
x264 [info]: i8c dc,h,v,p: 40% 27% 16% 17%
x264 [info]: Weighted P-Frames: Y:18.3% UV:12.7%
x264 [info]: ref P L0: 47.0%  9.2% 18.6%  6.5%  5.4%  3.7%  3.5%  1.9%  1.9%  1.6%  0.6%  0.1%
x264 [info]: ref B L0: 74.7% 12.1%  5.3%  2.7%  1.8%  1.5%  1.2%  0.5%  0.2%
x264 [info]: ref B L1: 92.5%  7.5%
x264 [info]: kb/s:2794.85
Общее
Уникальный идентификатор : 203165409742351848622480130290432008777 (0x98D83C109F89756893FAE0A12512E249)
Полное имя : D:Mои раздачиNoy.2014.BDRip.(AVC)-MediaClub.mkv
Формат : Matroska
Версия формата : Version 4 / Version 2
Размер файла : 4,17 Гбайт
Продолжительность : 2 ч. 17 м.
Общий поток : 4333 Кбит/сек
Название фильма : -=MediaClub-kaspr=-
Дата кодирования : UTC 2014-07-25 11:48:57
Программа кодирования : mkvmerge v6.9.1 ('Blue Panther') 64bit built on Apr 18 2014 18:23:38
Библиотека кодирования : libebml v1.3.0 + libmatroska v1.4.1

Видео
Идентификатор : 1
Формат : AVC
Формат/Информация : Advanced Video Codec
Профиль формата : High@L4.1
Параметр CABAC формата : Да
Параметр ReFrames формата : 10 кадров
Идентификатор кодека : V_MPEG4/ISO/AVC
Продолжительность : 2 ч. 17 м.
Битрейт : 2800 Кбит/сек
Ширина : 1024 пикселя
Высота : 554 пикселя
Соотношение сторон : 1,85:1
Режим частоты кадров : Постоянный
Частота кадров : 23,976 кадра/сек
Цветовое пространство : YUV
Субдискретизация насыщенности : 4:2:0
Битовая глубина : 8 бит
Тип развёртки : Прогрессивная
Бит/(Пиксели*Кадры) : 0.206
Размер потока : 2,61 Гбайт (63%)
Заголовок : -=MediaClub-kaspr=-
Библиотека кодирования : x264 core 142 r2431+42 c69a006 tMod [8-bit@4:2:0 X86_64]
Настройки программы : cabac=1 / ref=10 / deblock=1:-3:-3 / analyse=0x3:0x113 / me=umh / subme=11 / psy=1 / fade_compensate=0.00 / psy_rd=1.00:0.20 / mixed_ref=1 / me_range=32 / chroma_me=1 / trellis=2 / 8x8dct=1 / cqm=0 / deadzone=21,11 / fast_pskip=0 / chroma_qp_offset=-3 / threads=12 / lookahead_threads=3 / sliced_threads=0 / nr=0 / decimate=0 / interlaced=0 / bluray_compat=0 / constrained_intra=0 / fgo=0 / bframes=12 / b_pyramid=2 / b_adapt=2 / b_bias=0 / direct=3 / weightb=1 / open_gop=0 / weightp=2 / keyint=240 / keyint_min=23 / scenecut=40 / intra_refresh=0 / rc=2pass / mbtree=0 / bitrate=2800 / ratetol=1.0 / qcomp=0.60 / qpmin=0:0:0 / qpmax=69:69:69 / qpstep=4 / cplxblur=20.0 / qblur=0.5 / ip_ratio=1.40 / pb_ratio=1.30 / aq=4:0.80 / aq-sensitivity=10.00 / aq-factor=1.00:1.00:1.00 / aq2=0 / aq3=0
Default : Да
Forced : Да

Аудио #1
Идентификатор : 2
Формат : AC-3
Формат/Информация : Audio Coding 3
Расширение режима : CM (complete main)
Параметр Endianness формата : Big
Идентификатор кодека : A_AC3
Продолжительность : 2 ч. 17 м.
Вид битрейта : Постоянный
Битрейт : 448 Кбит/сек
Каналы : 6 каналов
Расположение каналов : Front: L C R, Side: L R, LFE
Частота : 48,0 КГц
Битовая глубина : 16 бит
Метод сжатия : С потерями
Размер потока : 442 Мбайт (10%)
Заголовок : Dub (Blu-ray CEE)
Язык : Russian
Default : Да
Forced : Да

Аудио #2
Идентификатор : 3
Формат : AC-3
Формат/Информация : Audio Coding 3
Расширение режима : CM (complete main)
Параметр Endianness формата : Big
Идентификатор кодека : A_AC3
Продолжительность : 2 ч. 17 м.
Вид битрейта : Постоянный
Битрейт : 448 Кбит/сек
Каналы : 6 каналов
Расположение каналов : Front: L C R, Side: L R, LFE
Частота : 48,0 КГц
Битовая глубина : 16 бит
Метод сжатия : С потерями
Размер потока : 442 Мбайт (10%)
Заголовок : AVO (Есарев)
Язык : Russian
Default : Нет
Forced : Нет

Аудио #3
Идентификатор : 4
Формат : AC-3
Формат/Информация : Audio Coding 3
Расширение режима : CM (complete main)
Параметр Endianness формата : Big
Идентификатор кодека : A_AC3
Продолжительность : 2 ч. 17 м.
Вид битрейта : Постоянный
Битрейт : 192 Кбит/сек
Каналы : 2 канала
Расположение каналов : Front: L R
Частота : 48,0 КГц
Битовая глубина : 16 бит
Метод сжатия : С потерями
Размер потока : 189 Мбайт (4%)
Язык : Ukrainian
Default : Нет
Forced : Нет

Аудио #4
Идентификатор : 5
Формат : AC-3
Формат/Информация : Audio Coding 3
Расширение режима : CM (complete main)
Параметр Endianness формата : Big
Идентификатор кодека : A_AC3
Продолжительность : 2 ч. 17 м.
Вид битрейта : Постоянный
Битрейт : 448 Кбит/сек
Каналы : 6 каналов
Расположение каналов : Front: L C R, Side: L R, LFE
Частота : 48,0 КГц
Битовая глубина : 16 бит
Метод сжатия : С потерями
Размер потока : 442 Мбайт (10%)
Язык : English
Default : Нет
Forced : Нет

Текст #1
Идентификатор : 6
Формат : UTF-8
Идентификатор кодека : S_TEXT/UTF8
Идентификатор кодека/Информация : UTF-8 Plain Text
Заголовок : Forced
Язык : Russian
Default : Да
Forced : Да

Текст #2
Идентификатор : 7
Формат : UTF-8
Идентификатор кодека : S_TEXT/UTF8
Идентификатор кодека/Информация : UTF-8 Plain Text
Заголовок : Full
Язык : Russian
Default : Нет
Forced : Нет

Текст #3
Идентификатор : 8
Формат : UTF-8
Идентификатор кодека : S_TEXT/UTF8
Идентификатор кодека/Информация : UTF-8 Plain Text
Заголовок : Full
Язык : Ukrainian
Default : Нет
Forced : Нет

Текст #4
Идентификатор : 9
Формат : UTF-8
Идентификатор кодека : S_TEXT/UTF8
Идентификатор кодека/Информация : UTF-8 Plain Text
Заголовок : Colored
Язык : English
Default : Нет
Forced : Нет

Текст #5
Идентификатор : 10
Формат : UTF-8
Идентификатор кодека : S_TEXT/UTF8
Идентификатор кодека/Информация : UTF-8 Plain Text
Заголовок : SDH
Язык : English
Default : Нет
Forced : Нет

Текст #6
Идентификатор : 11
Формат : UTF-8
Идентификатор кодека : S_TEXT/UTF8
Идентификатор кодека/Информация : UTF-8 Plain Text
Заголовок : Full
Язык : English
Default : Нет
Forced : Нет

Меню
00:00:00.000 : en:Chapter 01
00:04:48.955 : en:Chapter 02
00:08:37.266 : en:Chapter 03
00:12:23.033 : en:Chapter 04
00:18:43.080 : en:Chapter 05
00:23:25.487 : en:Chapter 06
00:32:06.424 : en:Chapter 07
00:37:27.203 : en:Chapter 08
00:42:50.734 : en:Chapter 09
00:54:35.647 : en:Chapter 10
01:01:14.962 : en:Chapter 11
01:03:28.596 : en:Chapter 12
01:09:33.794 : en:Chapter 13
01:19:18.336 : en:Chapter 14
01:21:56.536 : en:Chapter 15
01:29:12.347 : en:Chapter 16
01:34:02.053 : en:Chapter 17
01:40:27.354 : en:Chapter 18
01:49:23.098 : en:Chapter 19
01:55:57.825 : en:Chapter 20
02:00:37.230 : en:Chapter 21
02:11:32.676 : en:Chapter 22


Релиз: |



   Похожие торренты   Торрент   Размер 
В этой теме нет новых непрочитанных сообщений. Ной / Noah (2014) BDRip-AVC от MediaClub | D | Чистый звук

3424 | 364

3.5 ГБ

В этой теме нет новых непрочитанных сообщений. Ной / Noah (2014) BDRip-AVC от New-Team | D | Лицензия

203 | 24

747.68 МБ

В этой теме нет новых непрочитанных сообщений. Ной / Noah (2014) BDRip-AVC от New-Team | D | Лицензия

400 | 56

2.18 ГБ

В этой теме нет новых непрочитанных сообщений. Ной / Noah (2014) BDRip-AVC от HQCLUB | Лицензия

1153 | 130

2.92 ГБ

В этой теме нет новых непрочитанных сообщений. Ной / Noah (2014) BDRip-AVC от New-Team | D | Лицензия

1088 | 138

1.46 ГБ

В этой теме нет новых непрочитанных сообщений. Ной / Noah (2014) BDRip-AVC от HELLYWOOD | Лицензия

1260 | 198

2.91 ГБ

В этой теме нет новых непрочитанных сообщений. Ной / Noah (2014) BDRip-AVC от HELLYWOOD | Лицензия

1031 | 202

1.76 ГБ




Вы не можете начинать темы
Вы не можете отвечать на сообщения
Вы не можете редактировать свои сообщения
Вы не можете удалять свои сообщения
Вы не можете добавлять вложения

Перейти:  
 Вход
ppkBB3cker v.2 © 2008-2014 @ PPK
[ Time : 0.058s | 17 Queries | GZIP : Off ]

cron