img image001 image001 image001 image001 image001 image001 image001 image001 image001 image001 image001 image001 image001 image001 image001 image001

Planets Sun Sun Sun
Статистика раздачи
Автор: Nickolas3434 | Размер: 4.65 ГБ | Добавлен: 03 авг 2014
Раздают: 39    Качают: 16
Скачать торрент
Скачать торрент
Описание торрента

СообщениеДобавлено: 03 авг 2014 

Информация о фильме
Название: Ты будешь чтить свою мать и свою мать
Оригинальное название: Tu honoreras ta mère et ta mère
Год выхода: 2012
Жанр: Комедия
Режиссер: Брижит Роюан
В ролях: Николь Гарсия, Эрик Каравака, Патрик Милле, Микаэль Абитбуль, Гаспар Ульель, Элиза Товати, Сандрин Дюма, Сара Габриэль, Хелен Райс, Эмманюэль Рива

О фильме:
История о том, как один молодой парень очень долгое время не мог решиться на шаг к семейной жизни и решает навсегда остаться около своей матери, хоть все его многочисленные друзья давно уже живут в браке.



Страна: Франция
Студия: Agat Films & Cie, Boo Productions, France 2 Cinéma, Pinou Film
Продолжительность: 01:31:51
Перевод: Профессиональный двухголосый (НТВ+)

Файл
Кодек: MPEG-4 AVC
Качество: HDTVRip 1080p
Видео: 6800 Кбит/с, 1920x1040, 25.000 кадр/с
Звук: Русский (АС3, 6 ch, 448 Кбит/с)

Семпл


Общее
Полное имя : Ty.budesh.chtit.svoju.mat.i.svoju.mat.2012.x264.HDTVRip(1080p).MediaClub.mkv
Формат : Matroska
Версия формата : Version 2
Размер файла : 4,65 Гбайт
Продолжительность : 1 ч. 31 м.
Общий поток : 7251 Кбит/сек
Название фильма : MediaClub
Дата кодирования : UTC 2014-08-02 11:59:09
Программа кодирования : mkvmerge v5.4.0 ('Piper') built on Mar 10 2012 13:34:39
Библиотека кодирования : libebml v1.2.3 + libmatroska v1.3.0

Видео
Идентификатор : 1
Формат : AVC
Формат/Информация : Advanced Video Codec
Профиль формата : High@L4.1
Параметр CABAC формата : Да
Параметр ReFrames формата : 4 кадра
Идентификатор кодека : V_MPEG4/ISO/AVC
Продолжительность : 1 ч. 31 м.
Битрейт : 6800 Кбит/сек
Ширина : 1920 пикселей
Высота : 1040 пикселей
Соотношение сторон : 1,85:1
Режим частоты кадров : Постоянный
Частота кадров : 25,000 кадров/сек
Цветовое пространство : YUV
Субдискретизация насыщенности : 4:2:0
Битовая глубина : 8 бит
Тип развёртки : Прогрессивная
Бит/(Пиксели*Кадры) : 0.136
Размер потока : 4,27 Гбайт (92%)
Библиотека кодирования : x264 core 125 r2208 d9d2288
Настройки программы : cabac=1 / ref=4 / deblock=1:-3:-2 / analyse=0x3:0x133 / me=umh / subme=10 / psy=1 / psy_rd=1.00:0.20 / mixed_ref=1 / me_range=48 / chroma_me=1 / trellis=2 / 8x8dct=1 / cqm=0 / deadzone=21,11 / fast_pskip=0 / chroma_qp_offset=-3 / threads=6 / lookahead_threads=1 / sliced_threads=0 / nr=0 / decimate=0 / interlaced=0 / bluray_compat=0 / constrained_intra=0 / bframes=8 / b_pyramid=2 / b_adapt=2 / b_bias=0 / direct=3 / weightb=1 / open_gop=0 / weightp=2 / keyint=250 / keyint_min=25 / scenecut=40 / intra_refresh=0 / rc=2pass / mbtree=0 / bitrate=6800 / ratetol=1.0 / qcomp=0.60 / qpmin=0 / qpmax=69 / qpstep=4 / cplxblur=20.0 / qblur=0.5 / ip_ratio=1.40 / pb_ratio=1.30 / aq=1:1.00
Default : Да
Forced : Нет

Аудио
Идентификатор : 2
Формат : AC-3
Формат/Информация : Audio Coding 3
Расширение режима : CM (complete main)
Параметр Endianness формата : Big
Идентификатор кодека : A_AC3
Продолжительность : 1 ч. 31 м.
Вид битрейта : Постоянный
Битрейт : 448 Кбит/сек
Каналы : 6 каналов
Расположение каналов : Front: L C R, Side: L R, LFE
Частота : 48,0 КГц
Битовая глубина : 16 бит
Метод сжатия : С потерями
Размер потока : 294 Мбайт (6%)
Язык : Russian
Default : Да
Forced : Нет


Релиз от:



   Похожие торренты   Торрент   Размер 
В этой теме нет новых непрочитанных сообщений. Ты будешь чтить свою мать и свою мать / Tu honoreras ta mère et ta mère (2012) HDTVRip 720p от MediaClub | P2

75 | 35

2.6 ГБ

В этой теме нет новых непрочитанных сообщений. Ты будешь чтить свою мать и свою мать / Tu honoreras ta mère et ta mère (2012) HDTVRip-AVC от MediaClub | P2

45 | 33

1.75 ГБ

В этой теме нет новых непрочитанных сообщений. Ты будешь чтить свою мать и свою мать / Tu honoreras ta mère et ta mère (2012) HDTVRip от MediaClub | P2

164 | 49

1.46 ГБ

В этой теме нет новых непрочитанных сообщений. Ты будешь чтить свою мать и свою мать / Tu honoreras ta mère et ta mère (2012) SATRip от MediaClub | P2

154 | 46

1.36 ГБ

В этой теме нет новых непрочитанных сообщений. Моя мать / Ma mère (2004) DVDRip

12 | 5

1.45 ГБ

В этой теме нет новых непрочитанных сообщений. Я убил свою маму / J'ai tué ma mère / I Killed My Mother (2009) DVDRip

60 | 6

1.37 ГБ

В этой теме нет новых непрочитанных сообщений. Я убил свою маму / J'ai tué ma mère / I Killed My Mother (2009) DVDRip

18 | 6

692.77 МБ




Вы не можете начинать темы
Вы не можете отвечать на сообщения
Вы не можете редактировать свои сообщения
Вы не можете удалять свои сообщения
Вы не можете добавлять вложения

Перейти:  
 Вход
ppkBB3cker v.2 © 2008-2014 @ PPK
[ Time : 0.033s | 16 Queries | GZIP : Off ]

cron