img image001 image001 image001 image001 image001 image001 image001 image001 image001 image001 image001 image001 image001 image001 image001 image001

Planets Sun Sun Sun
Статистика раздачи
Автор: Nickolas3434 | Размер: 4.36 ГБ | Добавлен: 07 авг 2014
Раздают: 457    Качают: 45
Скачать торрент
Скачать торрент
Описание торрента

СообщениеДобавлено: 07 авг 2014 


#77
Информация о фильме
    Русское название: Звездный путь
    Оригинальное название: Star Trek
    Год выхода: 2009
    Жанр: Фантастика, боевик, приключения
    Режиссер: Джей Джей Абрамс
    Выпущено: США, Германия
    Продолжительность: 02:06:50
    Перевод: Дублированный
    В ролях: Крис Пайн, Закари Куинто, Леонард Нимой, Эрик Бана, Брюс Гринвуд, Карл Урбан, Зои Салдана, Саймон Пегг, Джон Чо, Антон Ельчин


Сюжет фильма
    Судьба галактики в руках непримиримых соперников, принадлежащих к совершенно разным мирам. Один из них — Джеймс Т. Кирк, хулиган из Айовы, прирожденный лидер, и искатель приключений. Второй, Спок, вырос на планете Вулкан и стал изгоем по причине своего получеловеческого происхождения.
    Кирк и Спок являются полными противоположностями; стремясь познать свою истинную сущность и понять, что они могут дать миру, молодые люди вскоре становятся непримиримыми соперниками. Один из них движим страстями, другой руководствуется холодной логикой.


Файл
    Качество: BDRip 720p (исходник Blu-ray Disc )
    Видео: 1280x534, 3654 Кбит/сек, 23,976 кадр/сек, AVC, x264, High@L4.1, 2.40:1, 0.223 Бит/[Пиксели*Кадры]
    Аудио 1: AC-3, 640 Кбит/сек, 6 канала(ов), 48,0 КГц - Дублированный / Русский
    Аудио 2: AC-3, 640 Кбит/сек, 6 канала(ов), 48,0 КГц - Оригинал / Английский
    Субтитры: Русские | Полные, Английские | Полные
    Форсированные субтитры: Нет
    Чаптеры (Главы): Есть



Автор Рипа: Сообщество:



Format : Matroska
Format version : Version 2
File size : 4.36 GiB
Duration : 2h 6mn
Overall bit rate : 4 918 Kbps
Movie name : Звездный путь.(2009).BDRip.720p.[envy]
Encoded date : UTC 2014-08-05 18:38:51
Writing application : mkvmerge v5.8.0 ('No Sleep / Pillow') built on Sep 2 2012 15:37:04
Writing library : libebml v1.2.3 + libmatroska v1.3.0

Video
ID : 1
Format : AVC
Format/Info : Advanced Video Codec
Format profile : High@L4.1
Format settings, CABAC : Yes
Format settings, ReFrames : 11 frames
Codec ID : V_MPEG4/ISO/AVC
Duration : 2h 6mn
Bit rate : 3 654 Kbps
Width : 1 280 pixels
Height : 534 pixels
Display aspect ratio : 2.40:1
Frame rate mode : Constant
Frame rate : 23.976 fps
Color space : YUV
Chroma subsampling : 4:2:0
Bit depth : 8 bits
Scan type : Progressive
Bits/(Pixel*Frame) : 0.223
Stream size : 3.14 GiB (72%)
Title : Звездный путь.(2009).BDRip.720p.[envy]
Writing library : x264 core 142 r2453 ea0ca51
Encoding settings : cabac=1 / ref=11 / deblock=1:-3:-3 / analyse=0x3:0x113 / me=umh / subme=11 / psy=1 / psy_rd=1.00:0.00 / mixed_ref=1 / me_range=32 / chroma_me=1 / trellis=2 / 8x8dct=1 / cqm=0 / deadzone=21,11 / fast_pskip=0 / chroma_qp_offset=-2 / threads=12 / lookahead_threads=2 / sliced_threads=0 / nr=0 / decimate=1 / interlaced=0 / bluray_compat=0 / constrained_intra=0 / bframes=7 / b_pyramid=2 / b_adapt=2 / b_bias=0 / direct=3 / weightb=1 / open_gop=0 / weightp=2 / keyint=240 / keyint_min=23 / scenecut=40 / intra_refresh=0 / rc=2pass / mbtree=0 / bitrate=3654 / ratetol=2.0 / qcomp=0.60 / qpmin=0 / qpmax=69 / qpstep=4 / cplxblur=20.0 / qblur=0.5 / ip_ratio=1.40 / pb_ratio=1.30 / aq=2:0.90
Language : English
Default : Yes
Forced : No

Audio #1
ID : 2
Format : AC-3
Format/Info : Audio Coding 3
Mode extension : CM (complete main)
Format settings, Endianness : Big
Codec ID : A_AC3
Duration : 2h 6mn
Bit rate mode : Constant
Bit rate : 640 Kbps
Channel(s) : 6 channels
Channel positions : Front: L C R, Side: L R, LFE
Sampling rate : 48.0 KHz
Bit depth : 16 bits
Compression mode : Lossy
Stream size : 581 MiB (13%)
Title : Dub
Language : Russian
Default : Yes
Forced : No

Audio #2
ID : 3
Format : AC-3
Format/Info : Audio Coding 3
Mode extension : CM (complete main)
Format settings, Endianness : Big
Codec ID : A_AC3
Duration : 2h 6mn
Bit rate mode : Constant
Bit rate : 640 Kbps
Channel(s) : 6 channels
Channel positions : Front: L C R, Side: L R, LFE
Sampling rate : 48.0 KHz
Bit depth : 16 bits
Compression mode : Lossy
Stream size : 581 MiB (13%)
Title : Eng
Language : English
Default : No
Forced : No

Text #1
ID : 4
Format : UTF-8
Codec ID : S_TEXT/UTF8
Codec ID/Info : UTF-8 Plain Text
Title : full
Language : Russian
Default : No
Forced : No

Text #2
ID : 5
Format : UTF-8
Codec ID : S_TEXT/UTF8
Codec ID/Info : UTF-8 Plain Text
Title : full
Language : English
Default : No
Forced : No

Menu
00:00:00.000 : :Chapter 01
00:11:57.215 : :Chapter 02
00:19:45.099 : :Chapter 03
00:28:09.103 : :Chapter 04
00:35:33.506 : :Chapter 05
00:44:10.397 : :Chapter 06
00:52:21.721 : :Chapter 07
01:01:33.606 : :Chapter 08
01:11:40.087 : :Chapter 09
01:20:39.501 : :Chapter 10
01:27:35.291 : :Chapter 11
01:36:29.575 : :Chapter 12
01:44:34.268 : :Chapter 13
01:53:13.411 : :Chapter 14
01:58:20.551 : :Chapter 15


#77



   Похожие торренты   Торрент   Размер 
В этой теме нет новых непрочитанных сообщений. Звездный путь / Star Trek (2009) BDRip 720p

116 | 24

12.31 ГБ

В этой теме нет новых непрочитанных сообщений. Звездный путь / Star Trek (2009) BDRip 720p от Leonardo and Scarabey | Лицензия

196 | 38

6.16 ГБ

В этой теме нет новых непрочитанных сообщений. Звездный путь / Star Trek (2009) BDRip 1080p

458 | 49

11.5 ГБ

В этой теме нет новых непрочитанных сообщений. Звездный путь: Дилогия / Star Trek: Dilogy (2009-2013) BDRip

550 | 108

5.82 ГБ

В этой теме нет новых непрочитанных сообщений. Звездный путь / Star Trek (2009) UHD BDRemux 2160p от ExKinoRay | 4K | HDR | D, A, P | Лицензия

7 | 10

54.71 ГБ

В этой теме нет новых непрочитанных сообщений. Звездный путь: Восстание / Star Trek: Insurrection (1998) BDRip 1080p | P, A

6 | 3

9.02 ГБ

В этой теме нет новых непрочитанных сообщений. Звёздный Путь: Следующее Поколение / Star Trek: The Next Generation [S05] (1987-1994) BDRip-AVC

56 | 28

20.85 ГБ




Вы не можете начинать темы
Вы не можете отвечать на сообщения
Вы не можете редактировать свои сообщения
Вы не можете удалять свои сообщения
Вы не можете добавлять вложения

Перейти:  
 Вход
ppkBB3cker v.2 © 2008-2014 @ PPK
[ Time : 0.044s | 19 Queries | GZIP : Off ]

cron