img image001 image001 image001 image001 image001 image001 image001 image001 image001 image001 image001 image001 image001 image001 image001 image001

Planets Sun Sun Sun
Статистика раздачи
Автор: Nickolas3434 | Размер: 1.63 ГБ | Добавлен: 09 авг 2014
Раздают: 201    Качают: 19
Скачать торрент
Скачать торрент
Описание торрента

СообщениеДобавлено: 09 авг 2014 

Информация о фильме
Название: Сердце льва
Оригинальное название: Leijonasydän (Heart of A Lion)
Год выпуска: 2013
Жанр: Драма
Выпущено: Финляндия, Швеция, Helsinki Filmi Oy, Suomen Elokuvasäätiö, Yleisradio (YLE)
Режиссер: Доме Карукоски
В ролях: Петер Францен, Лаура Бирн, Яспер Пяякконен, Памела Тола, Юсси Ватанен, Деограсиас Масоми, Микко Неувонен, Лаура Хеймо, Тимо Лавикайнен, Юха Пурсиайнен
О фильме: Молодой парень Теппо, придерживающийся неонацистских взглядов, страстно влюбляется в Сари, у которой есть маленький темнокожий сын Раму. Эти отношения ставят перед парнем сложные вопросы. Способен ли Теппо перерасти свои собственные предрассудки? Что окажется для него важнее: любовь или же преданность друзьям? Есть ли в сердце храброго льва место для нежности?

Файл
Качество: HDRip (AVC)
Видео: MPEG-4 AVC, 1393 Кбит/с, 1024х428
Аудио: Русский (AC3, 2 ch, 192 Кбит/с), (AC3, 6 ch, 384 Кбит/с), финский (AC3, 6 ch, 384 Кбит/с)
Продолжительность: 01:39:18
Перевод: Профессиональный двухголосый [НТВ+], любительский одноголосый (хихидок)
Субтитры: Русские [forced, на песни], английские
x264 [info]: frame I:893 Avg QP:16.04 size: 54212
x264 [info]: frame P:30717 Avg QP:18.68 size: 16915
x264 [info]: frame B:110568 Avg QP:21.03 size: 4186
x264 [info]: consecutive B-frames: 2.5% 2.5% 8.0% 15.1% 11.5% 52.1% 4.5% 1.4% 1.3% 0.7% 0.4%
__________________________________________________________
General
Unique ID : 195289856825107241150431378838036016034 (0x92EB7553C4C147B7ACBE97A920F9EBA2)
Complete name : C:Heart.of.a.Lion.2013.HDRip.AVC.ExKinoRay.mkv
Format : Matroska
Format version : Version 2
File size : 1.63 GiB
Duration : 1h 39mn
Overall bit rate : 2 346 Kbps
Movie name : Heart of A Lion 2013 from ExKinoRay
Encoded date : UTC 2014-08-08 01:07:04
Writing application : mkvmerge v4.9.1 ('Ich will') built on Jul 11 2011 23:53:15
Writing library : libebml v1.2.1 + libmatroska v1.1.1
Video
ID : 1
Format : AVC
Format/Info : Advanced Video Codec
Format profile : High@L4.1
Format settings, CABAC : Yes
Format settings, ReFrames : 9 frames
Codec ID : V_MPEG4/ISO/AVC
Duration : 1h 39mn
Bit rate : 1 393 Kbps
Width : 1 024 pixels
Height : 428 pixels
Display aspect ratio : 2.40:1
Frame rate mode : Constant
Frame rate : 23.976 fps
Color space : YUV
Chroma subsampling : 4:2:0
Bit depth : 8 bits
Scan type : Progressive
Bits/(Pixel*Frame) : 0.133
Stream size : 952 MiB (57%)
Title : Enigma-Vladislav71
Writing library : x264 core 116 r2044 392e762
Encoding settings : cabac=1 / ref=9 / deblock=1:-3:-3 / analyse=0x3:0x113 / me=umh / subme=10 / psy=1 / psy_rd=1.00:0.20 / mixed_ref=1 / me_range=32 / chroma_me=1 / trellis=2 / 8x8dct=1 / cqm=0 / deadzone=21,11 / fast_pskip=0 / chroma_qp_offset=-3 / threads=12 / sliced_threads=0 / nr=0 / decimate=0 / interlaced=0 / bluray_compat=0 / constrained_intra=0 / bframes=10 / b_pyramid=2 / b_adapt=2 / b_bias=0 / direct=3 / weightb=1 / open_gop=0 / weightp=2 / keyint=240 / keyint_min=23 / scenecut=40 / intra_refresh=0 / rc=2pass / mbtree=0 / bitrate=1393 / ratetol=1.0 / qcomp=0.60 / qpmin=0 / qpmax=69 / qpstep=4 / cplxblur=20.0 / qblur=0.5 / ip_ratio=1.40 / pb_ratio=1.30 / aq=1:1.00
Default : Yes
Forced : No
Audio #1
ID : 2
Format : AC-3
Format/Info : Audio Coding 3
Mode extension : CM (complete main)
Format settings, Endianness : Big
Codec ID : A_AC3
Duration : 1h 39mn
Bit rate mode : Constant
Bit rate : 384 Kbps
Channel(s) : 6 channels
Channel positions : Front: L C R, Side: L R, LFE
Sampling rate : 48.0 KHz
Bit depth : 16 bits
Compression mode : Lossy
Stream size : 273 MiB (16%)
Title : НТВ+
Language : Russian
Default : No
Forced : No
Audio #2
ID : 3
Format : AC-3
Format/Info : Audio Coding 3
Mode extension : CM (complete main)
Format settings, Endianness : Big
Codec ID : A_AC3
Duration : 1h 39mn
Bit rate mode : Constant
Bit rate : 192 Kbps
Channel(s) : 2 channels
Channel positions : Front: L R
Sampling rate : 44.1 KHz
Bit depth : 16 bits
Compression mode : Lossy
Stream size : 136 MiB (8%)
Title : hihidok
Language : Russian
Default : No
Forced : No
Audio #3
ID : 4
Format : AC-3
Format/Info : Audio Coding 3
Mode extension : CM (complete main)
Format settings, Endianness : Big
Codec ID : A_AC3
Duration : 1h 39mn
Bit rate mode : Constant
Bit rate : 384 Kbps
Channel(s) : 6 channels
Channel positions : Front: L C R, Side: L R, LFE
Sampling rate : 48.0 KHz
Bit depth : 16 bits
Compression mode : Lossy
Stream size : 273 MiB (16%)
Language : Finnish
Default : No
Forced : No
Text #1
ID : 5
Format : UTF-8
Codec ID : S_TEXT/UTF8
Codec ID/Info : UTF-8 Plain Text
Title : Forced
Language : Russian
Default : No
Forced : No
Text #2
ID : 6
Format : UTF-8
Codec ID : S_TEXT/UTF8
Codec ID/Info : UTF-8 Plain Text
Language : English
Default : No
Forced : No
Menu
00:00:00.000 : en:00:00:00.000
00:02:29.441 : en:00:02:29.441
00:09:12.802 : en:00:09:12.802
00:25:01.500 : en:00:25:01.500
00:32:48.466 : en:00:32:48.466
00:42:26.210 : en:00:42:26.210
00:52:00.159 : en:00:52:00.159
01:00:43.723 : en:01:00:43.723
01:09:16.778 : en:01:09:16.778
01:16:31.253 : en:01:16:31.253
01:26:21.134 : en:01:26:21.134
01:34:16.067 : en:01:34:16.067



Релиз от:
Авторы релиза:



   Похожие торренты   Торрент   Размер 
В этой теме нет новых непрочитанных сообщений. Сердце льва / Heart of A Lion / Leijonasydän (2013) HDRip | НТВ+

982 | 90

1.37 ГБ

В этой теме нет новых непрочитанных сообщений. Сердце льва / Leijonasydän / Heart of A Lion (2013) HDRip

239 | 35

744.97 МБ

В этой теме нет новых непрочитанных сообщений. Сердце льва / Leijonasydan / Heart of a lion (2013) HDRip от Scarabey

62 | 15

745.22 МБ

В этой теме нет новых непрочитанных сообщений. Сердце льва / Leijonasydan / Heart of a lion (2013) HDRip от Scarabey

233 | 28

1.44 ГБ

В этой теме нет новых непрочитанных сообщений. Сердце льва / Heart of A Lion / Leijonasydän (2013) BDRip 720p | P2

122 | 26

3.26 ГБ

В этой теме нет новых непрочитанных сообщений. Сердце льва / Heart of A Lion / Leijonasydän (2013) BDRip 720p от CINEMANIA | L1

233 | 173

3.77 ГБ

В этой теме нет новых непрочитанных сообщений. Сердце льва / Heart of A Lion / Leijonasydän (2013) BDRip 1080p от CINEMANIA | L1

8 | 55

10.13 ГБ




Вы не можете начинать темы
Вы не можете отвечать на сообщения
Вы не можете редактировать свои сообщения
Вы не можете удалять свои сообщения
Вы не можете добавлять вложения

Перейти:  
 Вход
ppkBB3cker v.2 © 2008-2014 @ PPK
[ Time : 0.046s | 21 Queries | GZIP : Off ]

cron