img image001 image001 image001 image001 image001 image001 image001 image001 image001 image001 image001 image001 image001 image001 image001 image001

Planets Sun Sun Sun
Статистика раздачи
Автор: Nickolas3434 | Размер: 1.46 ГБ | Добавлен: 10 авг 2014
Раздают: 243    Качают: 21
Скачать торрент
Скачать торрент
Описание торрента

СообщениеДобавлено: 10 авг 2014 

Информация о фильме
Название: 1984 (Тысяча девятьсот восемьдесят четвёртый)
Оригинальное название: 1984 (Nineteen Eighty-Four)
Год выхода: 1984
Жанр: Фантастика, антиутопия, триллер, драма, мелодрама, экранизация
Режиссёр: Майкл Рэдфорд
В ролях: Джон Хёрт, Ричард Бёртон, Сюзанна Хэмилтон, Сирил Кьюсак, Грегор Фишер, Джеймс Уолкер, Эндрю Вильде, Дэвид Тревена, Дэвид Канн, Энтони Бенсон и др.
О фильме:
Для подавления массовых волнений Океании правящая партия заново воссоздает прошлое и настоящее. За каждым гражданином неусыпно наблюдают, каждому с помощью телевидения промывают мозги. И даже двое любовников вынуждены скрывать свои чувства, поскольку секс и межличностные отношения объявлены вне закона…

Страна: Великобритания
Студия: Holiday Film Productions Ltd.
Продолжительность: 01:50:30
Перевод: Профессиональный двухголосый (НТВ+)
Оригинальная аудио-дорожка: Нет
Файл
Кодек: XviD
Качество: WEB-DLRip [Исходник: WEB-DL (720p)]
Видео: 704x384 (1.83:1), 23.976 fps, XviD build 73 ~1683 kbps avg, 0.26 bit/pixel
Звук: Русский, 48 kHz, AC3 Dolby Digital, 2/0 (L,R) ch, ~192.00 kbps [DVO, НТВ+]
Субтитры: Нет

General
Complete name : 1984.WEB-DLRip.[R.G.AllFilms].avi
Format : AVI
Format/Info : Audio Video Interleave
File size : 1.46 GiB
Duration : 1h 50mn
Overall bit rate : 1 885 Kbps
Movie name : Nineteen Eighty-Four (1984) - WEB-DLRip by Juvelir
Writing application : VirtualDubMod 1.5.10.3 | www.virtualdub-fr.org || (build 2550/release)
Video
ID : 0
Format : MPEG-4 Visual
Format profile : Advanced Simple@L5
Format settings, BVOP : 1
Format settings, QPel : No
Format settings, GMC : No warppoints
Format settings, Matrix : Custom
Codec ID : XVID
Codec ID/Hint : XviD
Duration : 1h 50mn
Bit rate : 1 684 Kbps
Width : 704 pixels
Height : 384 pixels
Display aspect ratio : 1.85:1
Frame rate : 23.976 fps
Color space : YUV
Chroma subsampling : 4:2:0
Bit depth : 8 bits
Scan type : Progressive
Compression mode : Lossy
Bits/(Pixel*Frame) : 0.260
Stream size : 1.30 GiB (89%)
Writing library : XviD 73
Audio
ID : 1
Format : AC-3
Format/Info : Audio Coding 3
Mode extension : CM (complete main)
Format settings, Endianness : Big
Codec ID : 2000
Duration : 1h 50mn
Bit rate mode : Constant
Bit rate : 192 Kbps
Channel(s) : 2 channels
Channel positions : Front: L R
Sampling rate : 48.0 KHz
Bit depth : 16 bits
Compression mode : Lossy
Stream size : 152 MiB (10%)
Alignment : Split accross interleaves
Interleave, duration : 42 ms (1.00 video frame)
Interleave, preload duration : 500 ms
Title : DVO (НТВ+)

Релиз от:



   Похожие торренты   Торрент   Размер 
В этой теме нет новых непрочитанных сообщений. 1984 / Тысяча девятьсот восемьдесят четвертый / Nineteen Eighty-Four (1984) WEB-DL 720p

445 | 49

3.54 ГБ

В этой теме нет новых непрочитанных сообщений. 1984 / Nineteen Eighty-Four (1984) BDRemux 1080р | P, P2, L1

4 | 0

17.64 ГБ

В этой теме нет новых непрочитанных сообщений. 1984 / Nineteen Eighty-Four (1984) HDTVRip 1080p

51 | 40

11.17 ГБ

В этой теме нет новых непрочитанных сообщений. 1984 / Nineteen Eighty-Four (1984) BDRip-AVC от Koenig | P, P2

7 | 0

2.74 ГБ

В этой теме нет новых непрочитанных сообщений. 1984 / Nineteen Eighty-Four (1984) BDRip-AVC | P2, Sub

307 | 8

2.76 ГБ

В этой теме нет новых непрочитанных сообщений. 1984 / Nineteen Eighty-Four (1984) DVDRip-AVC | P2

139 | 50

2.05 ГБ

В этой теме нет новых непрочитанных сообщений. Класс 1984 / Class of 1984 (1982) BDRip 1080p от NNNB | A

5 | 0

7.76 ГБ




Вы не можете начинать темы
Вы не можете отвечать на сообщения
Вы не можете редактировать свои сообщения
Вы не можете удалять свои сообщения
Вы не можете добавлять вложения

Перейти:  
 Вход
ppkBB3cker v.2 © 2008-2014 @ PPK
[ Time : 0.033s | 19 Queries | GZIP : Off ]

cron