img image001 image001 image001 image001 image001 image001 image001 image001 image001 image001 image001 image001 image001 image001 image001 image001

Planets Sun Sun Sun
Статистика раздачи
Автор: Nickolas3434 | Размер: 2.05 ГБ | Добавлен: 28 авг 2014
Раздают: 265    Качают: 55
Скачать торрент
Скачать торрент
Описание торрента

СообщениеДобавлено: 28 авг 2014 

Информация о фильме
Название: Любовь в словах и картинках
Оригинальное название: Words and Pictures
Год выхода: 2013
Жанр: Драма, мелодрама, комедия
Режиссер: Фред Скеписи
В ролях: Клайв Оуэн, Жюльетт Бинош, Валери Тиан, Навид Негабан, Брюс Дэвисон, Эми Бреннеман, Адам ДиМарко, Джош Ссеттуба, Джанет Киддер
О фильме:
Учитель английского языка и преподаватель искусства встречаются в престижной подготовительной школе. Между ними складываются непростые взаимоотношения. Более того они положили начало войне — студенты теперь пытаются доказать, что сильнее — слово или изображение. Но настоящая война идет против внутренних демонов преподавателей, пока их души борются за воссоединение…

Страна: США
Студия: Lascaux Films, Latitude Productions
Продолжительность: 01:55:44
Перевод: Субтитры
Файл
Кодек: XviD
Качество: BDRip
Видео: XviD, 2077 Кбит/с, 720х304
Звук: AC3, 6 ch, 448 Кбит/с
Субтитры: Русские
Семпл
General
Complete name : Words.and.Pictures.2013.XviD.BDRipWords.and.Pictures.2013.XviD.BDRip.avi
Format : AVI
Format/Info : Audio Video Interleave
Format profile : OpenDML
File size : 2.05 GiB
Duration : 1h 55mn
Overall bit rate : 2 537 Kbps
Writing application : VirtualDubMod 1.5.10.2 (build 2540/release)
Writing library : VirtualDubMod build 2540/release
Video
ID : 0
Format : MPEG-4 Visual
Format profile : Advanced Simple@L5
Format settings, BVOP : 1
Format settings, QPel : No
Format settings, GMC : No warppoints
Format settings, Matrix : Custom
Codec ID : XVID
Codec ID/Hint : XviD
Duration : 1h 55mn
Bit rate : 2 077 Kbps
Width : 720 pixels
Height : 304 pixels
Display aspect ratio : 2.35:1
Frame rate : 23.976 fps
Color space : YUV
Chroma subsampling : 4:2:0
Bit depth : 8 bits
Scan type : Progressive
Compression mode : Lossy
Bits/(Pixel*Frame) : 0.396
Stream size : 1.68 GiB (82%)
Writing library : XviD 1.2.1 (UTC 2008-12-04)
Audio
ID : 1
Format : AC-3
Format/Info : Audio Coding 3
Mode extension : CM (complete main)
Format settings, Endianness : Big
Codec ID : 2000
Duration : 1h 55mn
Bit rate mode : Constant
Bit rate : 448 Kbps
Channel(s) : 6 channels
Channel positions : Front: L C R, Side: L R, LFE
Sampling rate : 48.0 KHz
Bit depth : 16 bits
Compression mode : Lossy
Stream size : 371 MiB (18%)
Alignment : Split accross interleaves
Interleave, duration : 42 ms (1.00 video frame)
Interleave, preload duration : 500 ms





   Похожие торренты   Торрент   Размер 
В этой теме нет новых непрочитанных сообщений. Любовь в словах и картинах / Любовь в словах и картинках / Words and Pictures (2013) HDRip | Dub

400 | 55

1.45 ГБ

В этой теме нет новых непрочитанных сообщений. Любовь в словах и картинках / Words and Pictures (2013) BDRip 1080p | Sub

45 | 22

7.92 ГБ

В этой теме нет новых непрочитанных сообщений. Любовь в словах и картинках / Words and Pictures (2013) BDRip 720p by msltel | D, L

73 | 13

3.65 ГБ

В этой теме нет новых непрочитанных сообщений. Любовь в словах и картинках / Words and Pictures (2013) BDRip 1080p by msltel | D, L

38 | 11

9.98 ГБ

В этой теме нет новых непрочитанных сообщений. Любовь в словах и картинках / Words and Pictures (2013) BDRip 1080p от KinoRay | L

44 | 21

11.98 ГБ

В этой теме нет новых непрочитанных сообщений. Любовь в словах и картинках / Words and Pictures (2013) BDRip 720p | iTunes

43 | 15

6.45 ГБ

В этой теме нет новых непрочитанных сообщений. Любовь в словах и картинках / Words and Pictures (2013) BDRip 1080p | iTunes

40 | 14

11.89 ГБ




Вы не можете начинать темы
Вы не можете отвечать на сообщения
Вы не можете редактировать свои сообщения
Вы не можете удалять свои сообщения
Вы не можете добавлять вложения

Перейти:  
 Вход
ppkBB3cker v.2 © 2008-2014 @ PPK
[ Time : 0.348s | 19 Queries | GZIP : Off ]

cron