img image001 image001 image001 image001 image001 image001 image001 image001 image001 image001 image001 image001 image001 image001 image001 image001

Planets Sun Sun Sun
Статистика раздачи
Автор: Nickolas3434 | Размер: 2.31 ГБ | Добавлен: 17 сен 2014
Раздают: 241    Качают: 12
Скачать торрент
Скачать торрент
Описание торрента

СообщениеДобавлено: 17 сен 2014 

Информация о фильме
Название: Малефисента
Оригинальное название: Maleficent
Год выпуска: 2014
Жанр: Фэнтези, приключения, семейный, экранизация, ремейк
Режиссер: Роберт Стромберг
В ролях: Анджелина Джоли, Элль Фэннинг, Шарлто Копли, Сэм Райли, Имелда Стонтон, Джуно Темпл, Лесли Мэнвилл, Брентон Туэйтес, Кеннет Крэнэм, Изобель Моллой

Описание: Юная волшебница Малефисента вела уединенную жизнь в зачарованном лесу, окруженная сказочными существами, но однажды все изменилось… В её мир вторглись люди, которые принесли с собой разрушение и хаос, и Малефисенте пришлось встать на защиту своих подданных, призвав на помощь могущественные тёмные силы. В пылу борьбы Малефисента наложила страшное заклятие на новорожденную дочь короля, прекрасную Аврору. Но, наблюдая за тем, как растет маленькая принцесса, Малефисента начинает сомневаться в правильности своего поступка — ведь, возможно, именно Аврора может вдохнуть новую жизнь в волшебное лесное царство. Экранизация произведения Элизабет Рудник "Малефисента. История истинной любви".



Выпущено: США, Великобритания / Roth Films, Walt Disney Pictures
Продолжительность: 01:37:28
Перевод: Дублированный

Файл
Качество: BDRip (AVC)
Видео: MPEG-4 AVC, 2500 Кбит/с, 1024x426, 23.976 кадр/с
Аудио #1: Русский (AC3, 6 ch, 448 Кбит/с) / Дублированный (Blu-ray EUR)
Аудио #2: Английский (AC3, 6 ch, 448 Кбит/с)
Субтитры: Русские, английские

Семпл


x264 [info]: frame I:1161 Avg QP:14.32 size: 98553
x264 [info]: frame P:33730 Avg QP:17.40 size: 26882
x264 [info]: frame B:105323 Avg QP:19.34 size: 7657
x264 [info]: consecutive B-frames: 3.3% 3.9% 11.2% 26.5% 17.9% 25.9% 4.8% 1.7% 1.4% 0.6% 1.2% 0.8% 0.4% 0.3% 0.1%
***************************************************************************************************************************************
Общее
Уникальный идентификатор : 246686427248503794619074427309825660402 (0xB99613E4E13F4425BE0DAD2585CB15F2)
Полное имя : D:Mои раздачиMaleficent.2014.BDRip.(AVC)-MediaClub.mkv
Формат : Matroska
Версия формата : Version 4 / Version 2
Размер файла : 2,31 Гбайт
Продолжительность : 1 ч. 37 м.
Общий поток : 3398 Кбит/сек
Название фильма : -=MediaClub-kaspr=-
Дата кодирования : UTC 2014-09-12 18:47:10
Программа кодирования : mkvmerge v6.9.1 ('Blue Panther') 64bit built on Apr 18 2014 18:23:38
Библиотека кодирования : libebml v1.3.0 + libmatroska v1.4.1

Видео
Идентификатор : 1
Формат : AVC
Формат/Информация : Advanced Video Codec
Профиль формата : High@L4.1
Параметр CABAC формата : Да
Параметр ReFrames формата : 10 кадров
Идентификатор кодека : V_MPEG4/ISO/AVC
Продолжительность : 1 ч. 37 м.
Битрейт : 2500 Кбит/сек
Ширина : 1024 пикселя
Высота : 426 пикселей
Соотношение сторон : 2,40:1
Режим частоты кадров : Постоянный
Частота кадров : 23,976 кадра/сек
Цветовое пространство : YUV
Субдискретизация насыщенности : 4:2:0
Битовая глубина : 8 бит
Тип развёртки : Прогрессивная
Бит/(Пиксели*Кадры) : 0.239
Размер потока : 1,66 Гбайт (72%)
Заголовок : -=MediaClub-kaspr=-
Библиотека кодирования : x264 core 142 r2431+42 c69a006 tMod [8-bit@4:2:0 X86_64]
Настройки программы : cabac=1 / ref=10 / deblock=1:-3:-3 / analyse=0x3:0x113 / me=umh / subme=11 / psy=1 / fade_compensate=0.00 / psy_rd=1.00:0.20 / mixed_ref=1 / me_range=32 / chroma_me=1 / trellis=2 / 8x8dct=1 / cqm=0 / deadzone=21,11 / fast_pskip=0 / chroma_qp_offset=-3 / threads=12 / lookahead_threads=3 / sliced_threads=0 / nr=0 / decimate=0 / interlaced=0 / bluray_compat=0 / constrained_intra=0 / fgo=0 / bframes=14 / b_pyramid=2 / b_adapt=2 / b_bias=0 / direct=3 / weightb=1 / open_gop=0 / weightp=2 / keyint=240 / keyint_min=23 / scenecut=40 / intra_refresh=0 / rc=2pass / mbtree=0 / bitrate=2500 / ratetol=1.0 / qcomp=0.60 / qpmin=0:0:0 / qpmax=69:69:69 / qpstep=4 / cplxblur=20.0 / qblur=0.5 / ip_ratio=1.40 / pb_ratio=1.30 / aq=4:0.80 / aq-sensitivity=10.00 / aq-factor=1.00:1.00:1.00 / aq2=0 / aq3=0
Default : Да
Forced : Нет

Аудио #1
Идентификатор : 2
Формат : AC-3
Формат/Информация : Audio Coding 3
Расширение режима : CM (complete main)
Параметр Endianness формата : Big
Идентификатор кодека : A_AC3
Продолжительность : 1 ч. 37 м.
Вид битрейта : Постоянный
Битрейт : 448 Кбит/сек
Каналы : 6 каналов
Расположение каналов : Front: L C R, Side: L R, LFE
Частота : 48,0 КГц
Битовая глубина : 16 бит
Метод сжатия : С потерями
Размер потока : 312 Мбайт (13%)
Заголовок : Dub
Язык : Russian
Default : Да
Forced : Нет

Аудио #2
Идентификатор : 3
Формат : AC-3
Формат/Информация : Audio Coding 3
Расширение режима : CM (complete main)
Параметр Endianness формата : Big
Идентификатор кодека : A_AC3
Продолжительность : 1 ч. 37 м.
Вид битрейта : Постоянный
Битрейт : 448 Кбит/сек
Каналы : 6 каналов
Расположение каналов : Front: L C R, Side: L R, LFE
Частота : 48,0 КГц
Битовая глубина : 16 бит
Метод сжатия : С потерями
Размер потока : 312 Мбайт (13%)
Язык : English
Default : Нет
Forced : Нет

Текст #1
Идентификатор : 4
Формат : UTF-8
Идентификатор кодека : S_TEXT/UTF8
Идентификатор кодека/Информация : UTF-8 Plain Text
Язык : Russian
Default : Нет
Forced : Нет

Текст #2
Идентификатор : 5
Формат : UTF-8
Идентификатор кодека : S_TEXT/UTF8
Идентификатор кодека/Информация : UTF-8 Plain Text
Язык : English
Default : Нет
Forced : Нет

Меню
00:00:00.000 : en:Chapter 01
00:03:00.597 : en:Chapter 02
00:08:10.948 : en:Chapter 03
00:14:00.756 : en:Chapter 04
00:19:10.607 : en:Chapter 05
00:25:59.057 : en:Chapter 06
00:33:09.737 : en:Chapter 07
00:38:30.808 : en:Chapter 08
00:43:21.140 : en:Chapter 09
00:46:56.104 : en:Chapter 10
00:51:11.943 : en:Chapter 11
00:54:18.797 : en:Chapter 12
00:58:37.722 : en:Chapter 13
01:01:58.047 : en:Chapter 14
01:05:09.989 : en:Chapter 15
01:09:56.775 : en:Chapter 16
01:15:40.619 : en:Chapter 17
01:17:43.659 : en:Chapter 18
01:25:44.931 : en:Chapter 19
01:28:38.646 : en:Chapter 20


Релиз: |



   Похожие торренты   Торрент   Размер 
В этой теме нет новых непрочитанных сообщений. Малефисента / Maleficent (2014) BDRip 1080p от MediaClub | Лицензия

416 | 47

11.78 ГБ

В этой теме нет новых непрочитанных сообщений. Малефисента / Maleficent (2014) BDRip-AVC | Лицензия

1328 | 43

2.37 ГБ

В этой теме нет новых непрочитанных сообщений. Малефисента / Maleficent (2014) BDRip-AVC | iPad | D | Лицензия

277 | 7

2.03 ГБ

В этой теме нет новых непрочитанных сообщений. Малефисента / Maleficent (2014) BDRip от HELLYWOOD | Лицензия

223 | 51

1.76 ГБ

В этой теме нет новых непрочитанных сообщений. Малефисента / Maleficent (2014) BDRip-AVC от HQCLUB | Лицензия

78 | 4

3.69 ГБ

В этой теме нет новых непрочитанных сообщений. Малефисента / Maleficent (2014) BDRip-AVC от HELLYWOOD | Лицензия

363 | 17

2.18 ГБ

В этой теме нет новых непрочитанных сообщений. Малефисента / Maleficent (2014) BDRip 1080p | Лицензия

271 | 9

7.32 ГБ




Вы не можете начинать темы
Вы не можете отвечать на сообщения
Вы не можете редактировать свои сообщения
Вы не можете удалять свои сообщения
Вы не можете добавлять вложения

Перейти:  
 Вход
ppkBB3cker v.2 © 2008-2014 @ PPK
[ Time : 0.037s | 17 Queries | GZIP : Off ]

cron